travismk
一代宗师

[更 早] [欧美] [剧情] [BD-4K] 雾都孤儿/奥利弗 Oliver.1968.2160p.BluRay.x264.8bit.SDR.DTS-HD.MA.TrueHD.7.1.Atmos-SWTYB

-->

帖子完整标题:雾都孤儿/奥利弗 Oliver.1968.2160p.BluRay.x264.8bit.SDR.DTS-HD.MA.TrueHD.7.1.Atmos-SWTYBLZ 55.55GB



◎译  名 雾都孤儿/奥利弗/孤雏泪
◎片  名 Oliver!
◎年  代 1968
◎产  地 英国
◎类  别 剧情 / 歌舞 / 家庭 / 犯罪
◎语  言 英语
◎上映日期 1968-09-26
◎豆瓣评分 8.3/10 from 5971 users
◎豆瓣链接 https://movie.douban.com/subject/1293219/
◎片  长 153 分钟
◎导  演 卡罗尔·里德 Carol Reed
◎编  剧 莱昂内尔·巴特 Lionel Bart / 弗农·哈里斯 Vernon Harris / 查尔斯·狄更斯 Charles Dickens
◎主  演 朗·穆迪 Ron Moody
      姗妮·沃利斯 Shani Wallis
      奥列佛·里德 Oliver Reed
      哈里·塞科姆 Harry Secombe
      马克·莱斯特 Mark Lester
      杰克·瓦尔德 Jack Wild
      休·格里夫斯 Hugh Griffith
      约瑟夫·奥康纳 Joseph O'Conor
      佩姬·芒特 Peggy Mount
      雷纳德·洛塞特 Leonard Rossiter
      海尔达·贝克 Hylda Baker
      肯内斯·库兰汉姆 Kenneth Cranham
      梅格斯·詹金斯 Megs Jenkins
      希拉·怀特 Sheila White
      Wensley Pithey Wensley Pithey
      詹姆斯·海特 James Hayter
      Fred Emney Fred Emney
      诺曼·米切尔 Norman Mitchell
      John Baskcomb John Baskcomb
      罗伊·贝克 Roy Beck
      Terence Donovan Terence Donovan
      哈里·弗雷德尔 Harry Fielder
      Jack Haig Jack Haig
      John Heawood John Heawood
      Anthony Kemp Anthony Kemp
      伊莲·佩姬 Elaine Paige
      Nosher Powell Nosher Powell
      Helen Worth Helen Worth

◎标  签 英国 | 名著改编 | 奥斯卡最佳影片 | 英国电影 | 歌舞 | 音乐剧 | 奥斯卡 | 1968

◎简  介

  奥利弗(马克·莱斯特 Mark Lester 饰)是一名孤儿,从小在教会中长大。九岁时,奥利弗被派遣到工厂做工,之后又来到殡仪馆成为了学徒。奥利弗的聪慧和机敏让他很快就在殡仪馆里站稳了脚跟,但与此同时,他亦遭到了同伴们的妒忌,他们故意挑衅激怒奥利弗,最终奥利弗离开了殡仪馆。
  
  无家可归的奥利弗过起了四处流浪的生活,经过漫长的旅途,他来到了伦敦。一个名叫道奇(杰克·瓦尔德 Jack Wild 饰)的扒手将奥利弗带到了匪首费金(朗·穆迪 Ron Moody 饰)的面前,就这样,奥利弗成为了他们中的一员。一次意外中,奥利弗被警察逮捕了,但随后,他被证实是无辜的,当事人布朗罗先生(Joseph O'Conor 饰)对奥利弗感到十分愧疚,于是收留了他,奥利弗的生活能够从此走上正轨吗?

◎获奖情况

  第41届奥斯卡金像奖 ?(1969)
  最佳影片 约翰·沃尔夫
  最佳导演 卡罗尔·里德
  最佳男主角(提名) 朗·穆迪
  最佳男配角(提名) 杰克·瓦尔德
  最佳改编剧本(提名) 弗农·哈里斯
  最佳摄影(提名) 奥斯瓦尔德·莫里斯
  最佳剪辑(提名) 拉尔夫·坎普伦
  最佳音响
  最佳艺术指导 约翰·博克斯?/?泰伦斯·马什?/?弗农·迪克森?/?肯·马格尔斯顿
  最佳服装设计(提名) 菲利斯·达尔顿
  歌舞片最佳配乐 约翰尼·格林
  终身成就奖 昂纳·怀特

Video
ID : 1
Format : AVC
Format/Info : Advanced Video Codec
Format profile : [email protected]
Format settings : CABAC / 5 Ref Frames
Format settings, CABAC : Yes
Format settings, Reference frames : 5 frames
Codec ID : V_MPEG4/ISO/AVC
Duration : 2 h 33 min
Bit rate : 42.7 Mb/s
Width : 3 840 pixels
Height : 1 634 pixels
Display aspect ratio : 2.35:1
Frame rate mode : Constant
Frame rate : 23.976 (24000/1001/189150) FPS
Color space : YUV
Chroma subsampling : 4:2:0
Bit depth : 8 bits
Scan type : Progressive
Bits/(Pixel*Frame) : 0.284
Stream size : 45.8 GiB (83%)
Writing library : x264 core 157 r2935 545de2f
Encoding settings : cabac=1 / ref=5 / deblock=1:-1:-1 / analyse=0x3:0x113 / me=umh / subme=10 / psy=1 / psy_rd=1.00:0.15 / mixed_ref=1 / me_range=48 / chroma_me=1 / trellis=2 / 8x8dct=1 / cqm=0 / deadzone=21,11 / fast_pskip=1 / chroma_qp_offset=-3 / threads=48 / lookahead_threads=4 / sliced_threads=0 / nr=0 / decimate=0 / interlaced=0 / bluray_compat=0 / constrained_intra=0 / bframes=3 / b_pyramid=2 / b_adapt=2 / b_bias=0 / direct=3 / weightb=1 / open_gop=0 / weightp=2 / keyint=250 / keyint_min=23 / scenecut=40 / intra_refresh=0 / rc_lookahead=50 / rc=crf / mbtree=1 / crf=21.0 / qcomp=0.60 / qpmin=0 / qpmax=69 / qpstep=4 / ip_ratio=1.40 / aq=1:1.00
Default : Yes
Forced : No

Audio #1
ID : 2
ID in the original source medium : 4352 (0x1100)
Format : MLP FBA 16-ch
Format/Info : Meridian Lossless Packing FBA with 16-channel presentation
Commercial name : Dolby TrueHD with Dolby Atmos
Codec ID : A_TRUEHD
Duration : 2 h 33 min
Bit rate mode : Variable
Bit rate : 4 207 kb/s
Maximum bit rate : 5 829 kb/s
Channel(s) : 8 channels
Channel layout : L R C LFE Ls Rs Lb Rb
Sampling rate : 48.0 kHz
Frame rate : 1 200.000 FPS (40 SPF)
Bit depth : 24 bits
Compression mode : Lossless
Stream size : 4.51 GiB (8%)
Title : TrueHD 7.1 Atmos
Language : English
Default : Yes
Forced : No
Original source medium : Blu-ray
Number of dynamic objects : 11
Bed channel count : 1 channel
Bed channel configuration : LFE

Audio #2
ID : 3
Format : DTS XLL
Format/Info : Digital Theater Systems
Commercial name : DTS-HD Master Audio
Codec ID : A_DTS
Duration : 2 h 33 min
Bit rate mode : Variable
Bit rate : 3 678 kb/s
Channel(s) : 8 channels
Channel layout : C L R LFE Lb Rb Lss Rss
Sampling rate : 48.0 kHz
Frame rate : 93.750 FPS (512 SPF)
Bit depth : 24 bits
Compression mode : Lossless
Stream size : 3.95 GiB (7%)
Title : DTS-HD MA 7.1
Language : English
Default : No
Forced : No

Audio #3
ID : 4
ID in the original source medium : 4352 (0x1100)
Format : AC-3
Format/Info : Audio Coding 3
Commercial name : Dolby Digital
Codec ID : A_AC3
Duration : 2 h 33 min
Bit rate mode : Constant
Bit rate : 640 kb/s
Channel(s) : 6 channels
Channel layout : L R C LFE Ls Rs
Sampling rate : 48.0 kHz
Frame rate : 31.250 FPS (1536 SPF)
Compression mode : Lossy
Stream size : 703 MiB (1%)
Title : DD 5.1
Language : English
Service kind : Complete Main
Default : No
Forced : No
Original source medium : Blu-ray

Text #1
ID : 5
Format : UTF-8
Codec ID : S_TEXT/UTF8
Codec ID/Info : UTF-8 Plain Text
Duration : 2 h 24 min
Bit rate : 47 b/s
Count of elements : 1428
Stream size : 50.4 KiB (0%)
Title : SRT
Language : English
Default : No
Forced : No

Text #2
ID : 6
ID in the original source medium : 4768 (0x12A0)
Format : PGS
Muxing mode : zlib
Codec ID : S_HDMV/PGS
Codec ID/Info : Picture based subtitle format used on BDs/HD-DVDs
Duration : 2 h 32 min
Bit rate : 28.5 kb/s
Count of elements : 3169
Stream size : 31.1 MiB (0%)
Title : SDH US
Language : English
Default : No
Forced : No
Original source medium : Blu-ray

Text #3
ID : 7
ID in the original source medium : 4769 (0x12A1)
Format : PGS
Muxing mode : zlib
Codec ID : S_HDMV/PGS
Codec ID/Info : Picture based subtitle format used on BDs/HD-DVDs
Duration : 2 h 23 min
Bit rate : 26.9 kb/s
Count of elements : 2818
Stream size : 27.6 MiB (0%)
Title : US
Language : English
Default : No
Forced : No
Original source medium : Blu-ray

Text #4
ID : 8
ID in the original source medium : 4770 (0x12A2)
Format : PGS
Muxing mode : zlib
Codec ID : S_HDMV/PGS
Codec ID/Info : Picture based subtitle format used on BDs/HD-DVDs
Duration : 2 h 32 min
Bit rate : 28.5 kb/s
Count of elements : 3169
Stream size : 31.1 MiB (0%)
Title : SDH UK
Language : English
Default : No
Forced : No
Original source medium : Blu-ray

Text #5
ID : 9
ID in the original source medium : 4771 (0x12A3)
Format : PGS
Muxing mode : zlib
Codec ID : S_HDMV/PGS
Codec ID/Info : Picture based subtitle format used on BDs/HD-DVDs
Duration : 2 h 23 min
Bit rate : 26.9 kb/s
Count of elements : 2818
Stream size : 27.6 MiB (0%)
Title : UK
Language : English
Default : No
Forced : No
Original source medium : Blu-ray

Text #6
ID : 10
ID in the original source medium : 4772 (0x12A4)
Format : PGS
Muxing mode : zlib
Codec ID : S_HDMV/PGS
Codec ID/Info : Picture based subtitle format used on BDs/HD-DVDs
Duration : 2 h 27 min
Bit rate : 12.5 kb/s
Count of elements : 2796
Stream size : 13.1 MiB (0%)
Language : Arabic
Default : No
Forced : No
Original source medium : Blu-ray

Text #7
ID : 11
ID in the original source medium : 4773 (0x12A5)
Format : PGS
Muxing mode : zlib
Codec ID : S_HDMV/PGS
Codec ID/Info : Picture based subtitle format used on BDs/HD-DVDs
Duration : 2 h 24 min
Bit rate : 22.1 kb/s
Count of elements : 2302
Stream size : 22.8 MiB (0%)
Language : Bulgarian
Default : No
Forced : No
Original source medium : Blu-ray

Text #8
ID : 12
ID in the original source medium : 4774 (0x12A6)
Format : PGS
Muxing mode : zlib
Codec ID : S_HDMV/PGS
Codec ID/Info : Picture based subtitle format used on BDs/HD-DVDs
Duration : 2 h 24 min
Bit rate : 22.8 kb/s
Count of elements : 2836
Stream size : 23.5 MiB (0%)
Language : Chinese
Default : No
Forced : No
Original source medium : Blu-ray

Text #9
ID : 13
ID in the original source medium : 4775 (0x12A7)
Format : PGS
Muxing mode : zlib
Codec ID : S_HDMV/PGS
Codec ID/Info : Picture based subtitle format used on BDs/HD-DVDs
Duration : 2 h 25 min
Bit rate : 18.7 kb/s
Count of elements : 2100
Stream size : 19.5 MiB (0%)
Language : Czech
Default : No
Forced : No
Original source medium : Blu-ray

Text #10
ID : 14
ID in the original source medium : 4776 (0x12A8)
Format : PGS
Muxing mode : zlib
Codec ID : S_HDMV/PGS
Codec ID/Info : Picture based subtitle format used on BDs/HD-DVDs
Duration : 2 h 25 min
Bit rate : 22.1 kb/s
Count of elements : 2728
Stream size : 23.0 MiB (0%)
Language : Danish
Default : No
Forced : No
Original source medium : Blu-ray

Text #11
ID : 15
ID in the original source medium : 4777 (0x12A9)
Format : PGS
Muxing mode : zlib
Codec ID : S_HDMV/PGS
Codec ID/Info : Picture based subtitle format used on BDs/HD-DVDs
Duration : 2 h 24 min
Bit rate : 21.1 kb/s
Count of elements : 2034
Stream size : 21.8 MiB (0%)
Language : Dutch
Default : No
Forced : No
Original source medium : Blu-ray

Text #12
ID : 16
ID in the original source medium : 4778 (0x12AA)
Format : PGS
Muxing mode : zlib
Codec ID : S_HDMV/PGS
Codec ID/Info : Picture based subtitle format used on BDs/HD-DVDs
Duration : 2 h 25 min
Bit rate : 21.5 kb/s
Count of elements : 2626
Stream size : 22.4 MiB (0%)
Language : Finnish
Default : No
Forced : No
Original source medium : Blu-ray

Text #13
ID : 17
ID in the original source medium : 4779 (0x12AB)
Format : PGS
Muxing mode : zlib
Codec ID : S_HDMV/PGS
Codec ID/Info : Picture based subtitle format used on BDs/HD-DVDs
Duration : 2 h 25 min
Bit rate : 23.5 kb/s
Count of elements : 2852
Stream size : 24.5 MiB (0%)
Language : French
Default : No
Forced : No
Original source medium : Blu-ray

Text #14
ID : 18
ID in the original source medium : 4780 (0x12AC)
Format : PGS
Muxing mode : zlib
Codec ID : S_HDMV/PGS
Codec ID/Info : Picture based subtitle format used on BDs/HD-DVDs
Duration : 2 h 24 min
Bit rate : 27.9 kb/s
Count of elements : 2788
Stream size : 28.8 MiB (0%)
Language : German
Default : No
Forced : No
Original source medium : Blu-ray

Text #15
ID : 19
ID in the original source medium : 4780 (0x12AC)
Format : PGS
Muxing mode : zlib
Codec ID : S_HDMV/PGS
Codec ID/Info : Picture based subtitle format used on BDs/HD-DVDs
Duration : 1 h 19 min
Bit rate : 351 b/s
Count of elements : 28
Stream size : 206 KiB (0%)
Language : German
Default : No
Forced : No
Original source medium : Blu-ray

Text #16
ID : 20
ID in the original source medium : 4781 (0x12AD)
Format : PGS
Muxing mode : zlib
Codec ID : S_HDMV/PGS
Codec ID/Info : Picture based subtitle format used on BDs/HD-DVDs
Duration : 2 h 24 min
Bit rate : 22.7 kb/s
Count of elements : 2818
Stream size : 23.4 MiB (0%)
Language : Greek
Default : No
Forced : No
Original source medium : Blu-ray

Text #17
ID : 21
ID in the original source medium : 4782 (0x12AE)
Format : PGS
Muxing mode : zlib
Codec ID : S_HDMV/PGS
Codec ID/Info : Picture based subtitle format used on BDs/HD-DVDs
Duration : 2 h 24 min
Bit rate : 18.1 kb/s
Count of elements : 2310
Stream size : 18.7 MiB (0%)
Language : Hebrew
Default : No
Forced : No
Original source medium : Blu-ray

Text #18
ID : 22
ID in the original source medium : 4783 (0x12AF)
Format : PGS
Muxing mode : zlib
Codec ID : S_HDMV/PGS
Codec ID/Info : Picture based subtitle format used on BDs/HD-DVDs
Duration : 2 h 24 min
Bit rate : 19.8 kb/s
Count of elements : 2502
Stream size : 20.5 MiB (0%)
Language : Hungarian
Default : No
Forced : No
Original source medium : Blu-ray

Text #19
ID : 23
ID in the original source medium : 4784 (0x12B0)
Format : PGS
Muxing mode : zlib
Codec ID : S_HDMV/PGS
Codec ID/Info : Picture based subtitle format used on BDs/HD-DVDs
Duration : 2 h 25 min
Bit rate : 21.5 kb/s
Count of elements : 2162
Stream size : 22.3 MiB (0%)
Language : Icelandic
Default : No
Forced : No
Original source medium : Blu-ray

Text #20
ID : 24
ID in the original source medium : 4785 (0x12B1)
Format : PGS
Muxing mode : zlib
Codec ID : S_HDMV/PGS
Codec ID/Info : Picture based subtitle format used on BDs/HD-DVDs
Duration : 2 h 24 min
Bit rate : 24.4 kb/s
Count of elements : 2842
Stream size : 25.2 MiB (0%)
Language : Italian
Default : No
Forced : No
Original source medium : Blu-ray

Text #21
ID : 25
ID in the original source medium : 4785 (0x12B1)
Format : PGS
Muxing mode : zlib
Codec ID : S_HDMV/PGS
Codec ID/Info : Picture based subtitle format used on BDs/HD-DVDs
Duration : 1 h 19 min
Bit rate : 335 b/s
Count of elements : 30
Stream size : 196 KiB (0%)
Language : Italian
Default : No
Forced : No
Original source medium : Blu-ray

Text #22
ID : 26
ID in the original source medium : 4786 (0x12B2)
Format : PGS
Muxing mode : zlib
Codec ID : S_HDMV/PGS
Codec ID/Info : Picture based subtitle format used on BDs/HD-DVDs
Duration : 2 h 25 min
Bit rate : 21.3 kb/s
Count of elements : 2844
Stream size : 22.2 MiB (0%)
Language : Norwegian
Default : No
Forced : No
Original source medium : Blu-ray

Text #23
ID : 27
ID in the original source medium : 4787 (0x12B3)
Format : PGS
Muxing mode : zlib
Codec ID : S_HDMV/PGS
Codec ID/Info : Picture based subtitle format used on BDs/HD-DVDs
Duration : 2 h 24 min
Bit rate : 19.7 kb/s
Count of elements : 2066
Stream size : 20.3 MiB (0%)
Language : Polish
Default : No
Forced : No
Original source medium : Blu-ray

Text #24
ID : 28
ID in the original source medium : 4788 (0x12B4)
Format : PGS
Muxing mode : zlib
Codec ID : S_HDMV/PGS
Codec ID/Info : Picture based subtitle format used on BDs/HD-DVDs
Duration : 2 h 24 min
Bit rate : 23.0 kb/s
Count of elements : 2482
Stream size : 23.7 MiB (0%)
Language : Portuguese
Default : No
Forced : No
Original source medium : Blu-ray

Text #25
ID : 29
ID in the original source medium : 4789 (0x12B5)
Format : PGS
Muxing mode : zlib
Codec ID : S_HDMV/PGS
Codec ID/Info : Picture based subtitle format used on BDs/HD-DVDs
Duration : 2 h 25 min
Bit rate : 20.3 kb/s
Count of elements : 2630
Stream size : 21.2 MiB (0%)
Language : Portuguese
Default : No
Forced : No
Original source medium : Blu-ray

Text #26
ID : 30
ID in the original source medium : 4790 (0x12B6)
Format : PGS
Muxing mode : zlib
Codec ID : S_HDMV/PGS
Codec ID/Info : Picture based subtitle format used on BDs/HD-DVDs
Duration : 2 h 24 min
Bit rate : 19.8 kb/s
Count of elements : 1950
Stream size : 20.4 MiB (0%)
Language : Russian
Default : No
Forced : No
Original source medium : Blu-ray

Text #27
ID : 31
ID in the original source medium : 4791 (0x12B7)
Format : PGS
Muxing mode : zlib
Codec ID : S_HDMV/PGS
Codec ID/Info : Picture based subtitle format used on BDs/HD-DVDs
Duration : 2 h 25 min
Bit rate : 24.1 kb/s
Count of elements : 2840
Stream size : 25.2 MiB (0%)
Language : Slovak
Default : No
Forced : No
Original source medium : Blu-ray

Text #28
ID : 32
ID in the original source medium : 4792 (0x12B8)
Format : PGS
Muxing mode : zlib
Codec ID : S_HDMV/PGS
Codec ID/Info : Picture based subtitle format used on BDs/HD-DVDs
Duration : 2 h 25 min
Bit rate : 24.6 kb/s
Count of elements : 2740
Stream size : 25.7 MiB (0%)
Language : Spanish
Default : No
Forced : No
Original source medium : Blu-ray

Text #29
ID : 33
ID in the original source medium : 4793 (0x12B9)
Format : PGS
Muxing mode : zlib
Codec ID : S_HDMV/PGS
Codec ID/Info : Picture based subtitle format used on BDs/HD-DVDs
Duration : 2 h 25 min
Bit rate : 25.2 kb/s
Count of elements : 2742
Stream size : 26.2 MiB (0%)
Language : Spanish
Default : No
Forced : No
Original source medium : Blu-ray

Text #30
ID : 34
ID in the original source medium : 4794 (0x12BA)
Format : PGS
Muxing mode : zlib
Codec ID : S_HDMV/PGS
Codec ID/Info : Picture based subtitle format used on BDs/HD-DVDs
Duration : 2 h 25 min
Bit rate : 20.5 kb/s
Count of elements : 2602
Stream size : 21.3 MiB (0%)
Language : Swedish
Default : No
Forced : No
Original source medium : Blu-ray

Text #31
ID : 35
ID in the original source medium : 4795 (0x12BB)
Format : PGS
Muxing mode : zlib
Codec ID : S_HDMV/PGS
Codec ID/Info : Picture based subtitle format used on BDs/HD-DVDs
Duration : 2 h 24 min
Bit rate : 24.6 kb/s
Count of elements : 2836
Stream size : 25.4 MiB (0%)
Language : Thai
Default : No
Forced : No
Original source medium : Blu-ray

Text #32
ID : 36
ID in the original source medium : 4796 (0x12BC)
Format : PGS
Muxing mode : zlib
Codec ID : S_HDMV/PGS
Codec ID/Info : Picture based subtitle format used on BDs/HD-DVDs
Duration : 2 h 25 min
Bit rate : 23.8 kb/s
Count of elements : 2848
Stream size : 24.8 MiB (0%)
Language : Turkish
Default : No
Forced : No
Original source medium : Blu-ray

Menu
00:00:00.000 : Chapter 01
00:15:18.375 : Chapter 02
00:24:35.640 : Chapter 03
00:30:43.591 : Chapter 04
00:40:10.199 : Chapter 05
00:52:32.899 : Chapter 06
01:06:40.037 : Chapter 07
01:16:59.031 : Chapter 08
01:26:14.210 : Chapter 09
01:29:30.490 : Chapter 10
01:41:50.104 : Chapter 11
01:57:06.185 : Chapter 12
02:05:55.965 : Chapter 13
02:12:48.085 : Chapter 14
02:18:53.408 : Chapter 15
02:25:10.118 : Chapter 16





1 个附件 售价 大小 下载 时间

Oliver.1968.2160p.BluRay.x264.8bit.SDR.DTS-HD.MA.TrueHD.7.1.Atmos-SWTYBLZ.torrent 0 金币 70.17K 763 次 1月前

#1楼
发帖时间:2021-09-19 23:28:59   |   回复数:0
游客组