fg603603
一代宗师

[2019] [欧美] [喜剧] [BD-1080P] 爬坡人生 The.Climb.2019.1080p.BluRay.x264-USURY 10.69GB

-->

帖子完整标题:爬坡人生 The.Climb.2019.1080p.BluRay.x264-USURY 10.69GB



◎译  名 爬坡人生/Wspinaczka/婊兄弟上路(台)/跨年之恋
◎片  名 The Climb
◎年  代 2019
◎产  地 美国
◎类  别 喜剧
◎语  言 英语
◎上映日期 2019-05-17(戛纳电影节) / 2020-11-13(美国)
◎豆瓣评分 6.6/10 from 730 users
◎豆瓣链接 https://movie.douban.com/subject/33415963/
◎片  长 95分钟
◎导  演 迈克尔·安盖洛·科维诺 Michael Angelo Covino
◎编  剧 迈克尔·安盖洛·科维诺 Michael Angelo Covino / 凯尔·马文 Kyle Marvin
◎主  演 迈克尔·安盖洛·科维诺 Michael Angelo Covino
      凯尔·马文 Kyle Marvin
      盖尔·兰金 Gayle Rankin
      朱迪丝·戈德雷什 Judith Godrèche
      塔利亚·巴尔萨姆 Talia Balsam
      乔治·温迪特 George Wendt
      丹妮拉·科维诺 Daniella Covino
      伊登·马林 Eden Malyn
      梅雷迪思·霍尔兹曼 Meredith Holzman
      托德·巴里 Todd Barry
      吉娜·威尔德 Zina Wilde
      桑德拉·詹姆斯 Sondra James
      克里斯·阿韦迪西安 Kris Avedisian
      罗丝玛丽·霍华德 Rosemary Howard
      阿德里安·M·蒙波因特 Adrian M. Mompoint
      汤姆·斯特拉特福 Tom Stratford
      Alexander Blaise Alexander Blaise

◎标  签 美国 | 喜剧 | 2019 | 剧情 | 戛纳 | 骑行 | 长镜头 | 爱情

◎简  介

  风景优美的山间公路,气喘吁吁的凯尔,一边奋力踩著自行车,一边感谢死党麦可贴心在他婚前安排这趟旅程。「我和你未婚妻上床了。」麦可突如其来的坦诚,让上气不接下气的凯尔破口大骂,还得注意控制呼吸,好追赶上去痛扁他一顿。
  
  导演麦可偕同好友凯尔合力编写剧本,并亲身上阵饰演这对相爱相杀的难兄难弟。从八分钟一镜到底的同名短片延伸而成,坎城首映后掌声如雷,不仅夺下评审团「怦然心动」奖,高明的场面调度与出众的幽默感,也获得〈综艺〉、〈好莱坞报导〉齐声讚誉。一针见血的men’s talk,垃圾话无下限,保证让男性观众看了会心大笑,贱有戚戚焉。

◎获奖情况

  第72届戛纳电影节 ?(2019)
  一种关注单元一种关注大奖(提名) 迈克尔·安盖洛·科维诺
  一种关注单元评委会“心动”奖 迈克尔·安盖洛·科维诺
  
  第92届美国国家评论协会奖 ?(2020)
  十佳独立电影
  
  第35届美国独立精神奖 ?(2020)
  最佳处女作(提名)

Video
ID : 1
Format : AVC
Format/Info : Advanced Video Codec
Format profile : [email protected]
Format settings : CABAC / 4 Ref Frames
Format settings, CABAC : Yes
Format settings, Reference frames : 4 frames
Codec ID : V_MPEG4/ISO/AVC
Duration : 1 h 37 min
Bit rate : 11.9 Mb/s
Width : 1 920 pixels
Height : 960 pixels
Display aspect ratio : 2.000
Frame rate mode : Constant
Frame rate : 23.976 (24000/1001/189150) FPS
Color space : YUV
Chroma subsampling : 4:2:0
Bit depth : 8 bits
Scan type : Progressive
Bits/(Pixel*Frame) : 0.270
Stream size : 8.14 GiB (76%)
Writing library : x264 core 164 r3065 ae03d92
Encoding settings : cabac=1 / ref=4 / deblock=1:-3:-3 / analyse=0x3:0x133 / me=umh / subme=10 / psy=1 / psy_rd=1.00:0.15 / mixed_ref=1 / me_range=24 / chroma_me=1 / trellis=2 / 8x8dct=1 / cqm=0 / deadzone=21,11 / fast_pskip=1 / chroma_qp_offset=-3 / threads=18 / lookahead_threads=3 / sliced_threads=0 / nr=0 / decimate=1 / interlaced=0 / bluray_compat=0 / constrained_intra=0 / bframes=8 / b_pyramid=2 / b_adapt=2 / b_bias=0 / direct=3 / weightb=1 / open_gop=0 / weightp=2 / keyint=250 / keyint_min=23 / scenecut=40 / intra_refresh=0 / rc_lookahead=60 / rc=crf / mbtree=1 / crf=17.0 / qcomp=0.60 / qpmin=0 / qpmax=69 / qpstep=4 / ip_ratio=1.40 / aq=3:0.50
Language : English
Default : Yes
Forced : No

Audio #1
ID : 2
Format : DTS XLL
Format/Info : Digital Theater Systems
Commercial name : DTS-HD Master Audio
Codec ID : A_DTS
Duration : 1 h 37 min
Bit rate mode : Variable
Bit rate : 3 533 kb/s
Channel(s) : 6 channels
Channel layout : C L R Ls Rs LFE
Sampling rate : 48.0 kHz
Frame rate : 93.750 FPS (512 SPF)
Bit depth : 24 bits
Compression mode : Lossless
Stream size : 2.41 GiB (23%)
Language : English
Default : Yes
Forced : No

Audio #2
ID : 3
Format : AAC LC
Format/Info : Advanced Audio Codec Low Complexity
Codec ID : A_AAC-2
Duration : 1 h 37 min
Bit rate : 101 kb/s
Channel(s) : 2 channels
Channel layout : L R
Sampling rate : 48.0 kHz
Frame rate : 46.875 FPS (1024 SPF)
Compression mode : Lossy
Delay relative to video : 9 ms
Stream size : 70.7 MiB (1%)
Title : English Commentary by Michael Covino and Kyle Marvin
Language : English
Default : No
Forced : No

Text #1
ID : 4
Format : UTF-8
Codec ID : S_TEXT/UTF8
Codec ID/Info : UTF-8 Plain Text
Duration : 1 h 32 min
Bit rate : 62 b/s
Count of elements : 1262
Stream size : 42.3 KiB (0%)
Title : English
Language : English
Default : No
Forced : No

Text #2
ID : 5
Format : PGS
Muxing mode : zlib
Codec ID : S_HDMV/PGS
Codec ID/Info : Picture based subtitle format used on BDs/HD-DVDs
Duration : 1 h 32 min
Bit rate : 14.7 kb/s
Count of elements : 2524
Stream size : 9.69 MiB (0%)
Title : English
Language : English
Default : No
Forced : No

Text #3
ID : 6
Format : UTF-8
Codec ID : S_TEXT/UTF8
Codec ID/Info : UTF-8 Plain Text
Duration : 1 h 34 min
Bit rate : 73 b/s
Count of elements : 1515
Stream size : 50.7 KiB (0%)
Title : English SDH
Language : English
Default : No
Forced : No

Text #4
ID : 7
Format : PGS
Muxing mode : zlib
Codec ID : S_HDMV/PGS
Codec ID/Info : Picture based subtitle format used on BDs/HD-DVDs
Duration : 1 h 34 min
Bit rate : 17.3 kb/s
Count of elements : 3030
Stream size : 11.7 MiB (0%)
Title : English SDH
Language : English
Default : No
Forced : No

Text #5
ID : 8
Format : UTF-8
Codec ID : S_TEXT/UTF8
Codec ID/Info : UTF-8 Plain Text
Duration : 1 h 33 min
Bit rate : 122 b/s
Count of elements : 1901
Stream size : 84.1 KiB (0%)
Title : English Commentary by Michael Covino and Kyle Marvin
Language : English
Default : No
Forced : No

Text #6
ID : 9
Format : PGS
Muxing mode : zlib
Codec ID : S_HDMV/PGS
Codec ID/Info : Picture based subtitle format used on BDs/HD-DVDs
Duration : 1 h 33 min
Bit rate : 37.0 kb/s
Count of elements : 3802
Stream size : 24.7 MiB (0%)
Title : English Commentary by Michael Covino and Kyle Marvin
Language : English
Default : No
Forced : No

Text #7
ID : 10
Format : UTF-8
Codec ID : S_TEXT/UTF8
Codec ID/Info : UTF-8 Plain Text
Duration : 1 h 37 min
Bit rate : 47 b/s
Count of elements : 1197
Stream size : 33.8 KiB (0%)
Title : French
Language : French
Default : No
Forced : No

Text #8
ID : 11
Format : PGS
Muxing mode : zlib
Codec ID : S_HDMV/PGS
Codec ID/Info : Picture based subtitle format used on BDs/HD-DVDs
Duration : 1 h 37 min
Bit rate : 10.9 kb/s
Count of elements : 2394
Stream size : 7.57 MiB (0%)
Title : French
Language : French
Default : No
Forced : No

Text #9
ID : 12
Format : PGS
Muxing mode : zlib
Codec ID : S_HDMV/PGS
Codec ID/Info : Picture based subtitle format used on BDs/HD-DVDs
Duration : 1 h 37 min
Bit rate : 14.0 kb/s
Count of elements : 2584
Stream size : 9.71 MiB (0%)
Title : Spanish
Language : Spanish
Default : No
Forced : No

Menu
00:00:00.000 : en:00:00:00.000
00:06:51.786 : en:00:06:51.786
00:12:45.682 : en:00:12:45.682
00:19:37.843 : en:00:19:37.843
00:25:49.965 : en:00:25:49.965
00:30:01.383 : en:00:30:01.383
00:35:50.065 : en:00:35:50.065
00:42:23.124 : en:00:42:23.124
00:47:20.337 : en:00:47:20.337
00:52:42.409 : en:00:52:42.409
00:57:09.092 : en:00:57:09.092
01:02:38.755 : en:01:02:38.755
01:08:17.760 : en:01:08:17.760
01:11:20.234 : en:01:11:20.234
01:17:10.751 : en:01:17:10.751
01:22:33.949 : en:01:22:33.949
01:32:55.153 : en:01:32:55.153
01:37:47.361 : en:01:37:47.361





1 个附件 售价 大小 下载 时间

The.Climb.2019.1080p.BluRay.x264-USURY.torrent 0 金币 14.14K 588 次 1月前

#1楼
发帖时间:2021-09-20 08:54:40   |   回复数:0
游客组