fg603603
一代宗师

[2019] [欧美] [剧情] [BD-720P] 第一头牛/初生之犊 First.Cow.2019.PROPER.720p.BluRay.x264-USURY 6.85GB

-->

帖子完整标题:第一头牛/初生之犊 First.Cow.2019.PROPER.720p.BluRay.x264-USURY 6.85GB



◎译  名 第一头牛/初生之犊(台)/深夜里的美味秘方(台)
◎片  名 First Cow
◎年  代 2019
◎产  地 美国
◎类  别 剧情
◎语  言 英语
◎上映日期 2019-08-30(特柳赖德电影节) / 2020-07-10(美国)
◎豆瓣评分 7.6/10 from 11979 users
◎豆瓣链接 https://movie.douban.com/subject/30368608/
◎片  长 122分钟
◎导  演 凯莉·莱卡特 Kelly Reichardt
◎编  剧 乔纳森·雷蒙德 Jonathan Raymond / 凯莉·莱卡特 Kelly Reichardt
◎主  演 约翰·马加罗 John Magaro
      奥赖恩·李 Orion Lee
      勒内·奥贝尔若努瓦 Rene Auberjonois
      托比·琼斯 Toby Jones
      艾文·布莱纳 Ewen Bremner
      斯科特· 谢泼德 Scott Shepherd
      加利·法梅尔 Gary Farmer
      莉莉·格莱斯顿 Lily Gladstone
      阿莉雅·肖卡特 Alia Shawkat
      约翰·基廷 John Keating
      戴兰·史密斯 Dylan Smith
      克雷顿·尼姆罗 Clayton Nemrow
      杰布·贝里耶 Jeb Berrier
      托德·罗宾森 Todd Robinson
      特德·鲁尼 Ted Rooney

◎标  签 美国 | 西部 | 剧情 | 西部片 | 美国电影 | 凯莉·雷查德 | 2019 | 2020

◎简  介

  故事改编自乔纳森·雷蒙德的小说《半条命》,雷蒙德和导演雷查德共同改编,设定在十九世纪二十年代(即1820s)的俄勒冈,一个西方厨子Cookie(约翰·马加罗饰演)来到荒蛮的西部碰运气,遇到了同样前来寻找机会的中国移民King Lu( 奥瑞恩·李饰演),两人一见如故,并借着一头奶牛合伙做起了生 意。

◎获奖情况

  第70届柏林国际电影节 ?(2020)
  金熊奖(提名) 凯莉·莱卡特
  
  第86届纽约影评人协会奖 ?(2020)
  最佳影片
  
  第92届美国国家评论协会奖 ?(2020)
  年度佳片
  
  第26届美国评论家选择电影奖 ?(2021)
  最佳改编剧本(提名) 凯莉·莱卡特?/?乔恩·雷蒙德
  最佳摄影(提名) 克里斯·布劳维特
  
  第36届美国独立精神奖 ?(2021)
  最佳影片(提名)
  最佳导演(提名) 凯莉·莱卡特
  最佳男配角(提名) 奥赖恩·李
  
  第30届哥谭独立电影奖 ?(2020)
  最佳影片(提名)
  最佳男演员(提名) 约翰·马加罗
  年度突破演员(提名) 奥赖恩·李
  最佳剧本(提名) 凯莉·莱卡特?/?乔纳森·雷蒙德
  
  第55届美国国家影评人协会奖 ?(2021)
  最佳影片(提名)
  最佳导演(提名) 凯莉·莱卡特
  最佳剧本(提名) 凯莉·莱卡特?/?乔恩·雷蒙德
  
  第41届波士顿影评人协会奖 ?(2020)
  最佳影片(提名)
  最佳导演(提名) 凯莉·莱卡特
  最佳剧本(提名) 凯莉·莱卡特?/?乔纳森·雷蒙德
  
  第33届芝加哥影评人协会奖 ?(2020)
  最佳影片(提名)
  最佳导演(提名) 凯莉·莱卡特
  最佳改编剧本(提名) 凯莉·莱卡特?/?乔纳森·雷蒙德
  最佳摄影(提名) 克里斯·布劳维特
  最佳艺术指导(提名)
  最佳服装设计(提名)
  
  第5届亚特兰大影评人协会奖 ?(2020)
  十佳影片
  
  第24届美国在线影评人协会奖 ?(2021)
  最佳影片(提名)
  最佳导演(提名) 凯莉·莱卡特
  最佳改编剧本(提名) 凯莉·莱卡特?/?乔纳森·雷蒙德
  最佳摄影(提名) 克里斯·布劳维特

Video
ID : 1
Format : AVC
Format/Info : Advanced Video Codec
Format profile : [email protected]
Format settings : CABAC / 12 Ref Frames
Format settings, CABAC : Yes
Format settings, Reference frames : 12 frames
Codec ID : V_MPEG4/ISO/AVC
Duration : 2 h 1 min
Bit rate : 7 388 kb/s
Width : 960 pixels
Height : 720 pixels
Display aspect ratio : 4:3
Frame rate mode : Constant
Frame rate : 23.976 (24000/1001/189150) FPS
Color space : YUV
Chroma subsampling : 4:2:0
Bit depth : 8 bits
Scan type : Progressive
Bits/(Pixel*Frame) : 0.446
Stream size : 6.29 GiB (92%)
Writing library : x264 core 164 r3065 ae03d92
Encoding settings : cabac=1 / ref=12 / deblock=1:-3:-3 / analyse=0x3:0x133 / me=umh / subme=10 / psy=1 / psy_rd=1.00:0.15 / mixed_ref=1 / me_range=24 / chroma_me=1 / trellis=2 / 8x8dct=1 / cqm=0 / deadzone=21,11 / fast_pskip=1 / chroma_qp_offset=-3 / threads=18 / lookahead_threads=3 / sliced_threads=0 / nr=0 / decimate=1 / interlaced=0 / bluray_compat=0 / constrained_intra=0 / bframes=8 / b_pyramid=2 / b_adapt=2 / b_bias=0 / direct=3 / weightb=1 / open_gop=0 / weightp=2 / keyint=250 / keyint_min=23 / scenecut=40 / intra_refresh=0 / rc_lookahead=60 / rc=crf / mbtree=1 / crf=17.0 / qcomp=0.60 / qpmin=0 / qpmax=69 / qpstep=4 / ip_ratio=1.40 / aq=3:0.50
Language : English
Default : Yes
Forced : No

Audio
ID : 2
Format : AC-3
Format/Info : Audio Coding 3
Commercial name : Dolby Digital
Codec ID : A_AC3
Duration : 2 h 1 min
Bit rate mode : Constant
Bit rate : 640 kb/s
Channel(s) : 6 channels
Channel layout : L R C LFE Ls Rs
Sampling rate : 48.0 kHz
Frame rate : 31.250 FPS (1536 SPF)
Compression mode : Lossy
Stream size : 558 MiB (8%)
Language : English
Service kind : Complete Main
Default : Yes
Forced : No

Text #1
ID : 3
Format : UTF-8
Codec ID : S_TEXT/UTF8
Codec ID/Info : UTF-8 Plain Text
Duration : 1 h 52 min
Bit rate : 23 b/s
Count of elements : 638
Stream size : 19.6 KiB (0%)
Title : English
Language : English
Default : No
Forced : No

Text #2
ID : 4
Format : UTF-8
Codec ID : S_TEXT/UTF8
Codec ID/Info : UTF-8 Plain Text
Duration : 1 h 57 min
Bit rate : 28 b/s
Count of elements : 831
Stream size : 24.6 KiB (0%)
Title : English SDH
Language : English
Default : No
Forced : No

Text #3
ID : 5
Format : PGS
Muxing mode : zlib
Codec ID : S_HDMV/PGS
Codec ID/Info : Picture based subtitle format used on BDs/HD-DVDs
Duration : 1 h 57 min
Bit rate : 8 968 b/s
Count of elements : 1662
Stream size : 7.54 MiB (0%)
Title : English SDH
Language : English
Default : No
Forced : No

Text #4
ID : 6
Format : UTF-8
Codec ID : S_TEXT/UTF8
Codec ID/Info : UTF-8 Plain Text
Duration : 1 h 59 min
Bit rate : 20 b/s
Count of elements : 493
Stream size : 18.1 KiB (0%)
Title : Danish
Language : Danish
Default : No
Forced : No

Text #5
ID : 7
Format : UTF-8
Codec ID : S_TEXT/UTF8
Codec ID/Info : UTF-8 Plain Text
Duration : 1 h 54 min
Bit rate : 25 b/s
Count of elements : 681
Stream size : 21.4 KiB (0%)
Title : Dutch
Language : Dutch
Default : No
Forced : No

Text #6
ID : 8
Format : UTF-8
Codec ID : S_TEXT/UTF8
Codec ID/Info : UTF-8 Plain Text
Duration : 1 h 59 min
Bit rate : 22 b/s
Count of elements : 497
Stream size : 19.6 KiB (0%)
Title : Finnish
Language : Finnish
Default : No
Forced : No

Text #7
ID : 9
Format : UTF-8
Codec ID : S_TEXT/UTF8
Codec ID/Info : UTF-8 Plain Text
Duration : 1 h 54 min
Bit rate : 25 b/s
Count of elements : 654
Stream size : 21.7 KiB (0%)
Title : French
Language : French
Default : No
Forced : No

Text #8
ID : 10
Format : UTF-8
Codec ID : S_TEXT/UTF8
Codec ID/Info : UTF-8 Plain Text
Duration : 1 h 59 min
Bit rate : 22 b/s
Count of elements : 672
Stream size : 19.2 KiB (0%)
Title : German
Language : German
Default : No
Forced : No

Text #9
ID : 11
Format : UTF-8
Codec ID : S_TEXT/UTF8
Codec ID/Info : UTF-8 Plain Text
Duration : 1 h 55 min
Bit rate : 23 b/s
Count of elements : 680
Stream size : 19.5 KiB (0%)
Title : Italian
Language : Italian
Default : No
Forced : No

Text #10
ID : 12
Format : UTF-8
Codec ID : S_TEXT/UTF8
Codec ID/Info : UTF-8 Plain Text
Duration : 1 h 55 min
Bit rate : 24 b/s
Count of elements : 672
Stream size : 20.9 KiB (0%)
Title : Malay
Language : Malay
Default : No
Forced : No

Text #11
ID : 13
Format : UTF-8
Codec ID : S_TEXT/UTF8
Codec ID/Info : UTF-8 Plain Text
Duration : 1 h 59 min
Bit rate : 20 b/s
Count of elements : 492
Stream size : 18.0 KiB (0%)
Title : Norwegian
Language : Norwegian
Default : No
Forced : No

Text #12
ID : 14
Format : UTF-8
Codec ID : S_TEXT/UTF8
Codec ID/Info : UTF-8 Plain Text
Duration : 1 h 59 min
Bit rate : 22 b/s
Count of elements : 656
Stream size : 19.7 KiB (0%)
Title : Portuguese
Language : Portuguese
Default : No
Forced : No

Text #13
ID : 15
Format : UTF-8
Codec ID : S_TEXT/UTF8
Codec ID/Info : UTF-8 Plain Text
Duration : 1 h 54 min
Bit rate : 23 b/s
Count of elements : 622
Stream size : 19.8 KiB (0%)
Title : Spanish
Language : Spanish
Default : No
Forced : No

Text #14
ID : 16
Format : PGS
Muxing mode : zlib
Codec ID : S_HDMV/PGS
Codec ID/Info : Picture based subtitle format used on BDs/HD-DVDs
Duration : 2 h 0 min
Bit rate : 7 211 b/s
Count of elements : 1224
Stream size : 6.20 MiB (0%)
Title : Spanish
Language : Spanish
Default : No
Forced : No

Text #15
ID : 17
Format : UTF-8
Codec ID : S_TEXT/UTF8
Codec ID/Info : UTF-8 Plain Text
Duration : 1 h 59 min
Bit rate : 21 b/s
Count of elements : 492
Stream size : 18.3 KiB (0%)
Title : Swedish
Language : Swedish
Default : No
Forced : No

Text #16
ID : 18
Format : UTF-8
Codec ID : S_TEXT/UTF8
Codec ID/Info : UTF-8 Plain Text
Duration : 1 h 56 min
Bit rate : 22 b/s
Count of elements : 644
Stream size : 19.3 KiB (0%)
Title : Turkish
Language : Turkish
Default : No
Forced : No

Menu
00:00:00.000 : en:00:00:00.000
00:07:32.827 : en:00:07:32.827
00:12:15.234 : en:00:12:15.234
00:22:05.241 : en:00:22:05.241
00:27:21.390 : en:00:27:21.390
00:36:41.074 : en:00:36:41.074
00:44:40.219 : en:00:44:40.219
00:50:10.424 : en:00:50:10.424
00:56:47.029 : en:00:56:47.029
01:02:24.783 : en:01:02:24.783
01:07:04.687 : en:01:07:04.687
01:15:38.617 : en:01:15:38.617
01:24:03.956 : en:01:24:03.956
01:36:30.118 : en:01:36:30.118
01:44:24.049 : en:01:44:24.049
01:52:41.546 : en:01:52:41.546





1 个附件 售价 大小 下载 时间

First.Cow.2019.PROPER.720p.BluRay.x264-USURY.torrent 0 金币 17.85K 644 次 1月前

#1楼
发帖时间:2021-09-20 09:02:38   |   回复数:0
游客组