topgood
一派掌门

[2016] [其他] [剧情] [WEB-1080P] 4天情人节 4.Days.2016.TAGALOG.ENSUBBED.1080p.AMZN.WEBRip.DDP2.0.x264-Q0SWEB 5.23GB

-->

帖子完整标题:4天情人节 4.Days.2016.TAGALOG.ENSUBBED.1080p.AMZN.WEBRip.DDP2.0.x264-Q0SWEB 5.23GB



◎译  名 4天情人节
◎片  名 4 Days
◎年  代 2016
◎产  地 菲律宾
◎类  别 剧情
◎语  言 菲律宾语,他加禄语
◎上映日期 2016-08-12(菲律宾)
◎豆瓣评分 /10 from 0 users
◎豆瓣链接 https://movie.douban.com/subject/26881728/
◎片  长 76分钟
◎导  演 小阿多弗·亚历克斯 Adolfo Alix Jr.
◎编  剧 小阿多弗·亚历克斯 Adolfo Alix Jr.
◎主  演 塞巴斯蒂安·卡斯特罗 Sebastian Castro

◎标  签 菲律宾 | 青春 | 同性 | 爱情 | 同志 | LGBT | 2016 | 菲律宾电影

◎简  介

  We sometimes have to wrestle with our own demons to find our true self.
  
  4 Days tells the story of two school friends who slowly realize they mean more to each other than either had initially realized. 4 Days joins Derek and Mark in the days leading up to Valentine's Day over the course of a few years- charting the blossoming of a friendship in to something much more enduring as time goes on- and challenging both to question who they thought they were and who they truly want to me. Painting a moving picture of how an abiding friendship can sometimes lead to love- and how we sometimes have to wrestle with our own demons to find their true self, 4 Days is an achingly romantic and delicate teenage love story.
  
  Lead actors Mikoy Morales and Sebastian Castro give exceptional, often heartbreaking performances in this thoughtful and patient romance ? wherein the awkward silences and furtive glances speak volumes.

Video
ID : 1
Format : AVC
Format/Info : Advanced Video Codec
Format profile : [email protected]
Format settings : CABAC / 4 Ref Frames
Format settings, CABAC : Yes
Format settings, Reference frames : 4 frames
Codec ID : V_MPEG4/ISO/AVC
Duration : 1 h 15 min
Bit rate mode : Constant
Bit rate : 10 000 kb/s
Width : 1 920 pixels
Height : 1 080 pixels
Display aspect ratio : 16:9
Frame rate mode : Constant
Frame rate : 29.970 (30000/1001/189150) FPS
Standard : NTSC
Color space : YUV
Chroma subsampling : 4:2:0
Bit depth : 8 bits
Scan type : Progressive
Bits/(Pixel*Frame) : 0.161
Stream size : 5.11 GiB (98%)
Default : Yes
Forced : No
Color range : Limited
Color primaries : BT.709
Transfer characteristics : BT.709
Matrix coefficients : BT.709

Audio
ID : 2
Format : E-AC-3
Format/Info : Enhanced AC-3
Commercial name : Dolby Digital Plus
Codec ID : A_EAC3
Duration : 1 h 15 min
Bit rate mode : Constant
Bit rate : 224 kb/s
Channel(s) : 2 channels
Channel layout : L R
Sampling rate : 48.0 kHz
Frame rate : 31.250 FPS (1536 SPF)
Compression mode : Lossy
Stream size : 120 MiB (2%)
Title : English
Language : English
Service kind : Complete Main
Default : No
Forced : No

Text #1
ID : 3
Format : UTF-8
Codec ID : S_TEXT/UTF8
Codec ID/Info : UTF-8 Plain Text
Duration : 1 h 14 min
Bit rate : 35 b/s
Count of elements : 678
Stream size : 19.7 KiB (0%)
Title : English [SDH]
Language : English
Default : No
Forced : No

Text #2
ID : 4
Format : UTF-8
Codec ID : S_TEXT/UTF8
Codec ID/Info : UTF-8 Plain Text
Duration : 1 h 10 min
Bit rate : 34 b/s
Count of elements : 592
Stream size : 17.9 KiB (0%)
Title : English
Language : English
Default : No
Forced : No





1 个附件 售价 大小 下载 时间

4.Days.2016.TAGALOG.ENSUBBED.1080p.AMZN.WEBRip.DDP2.0.x264-Q0SWEB.torrent 0 金币 13.68K 329 次 1月前

#1楼
发帖时间:2021-10-26 17:13:28   |   回复数:0
游客组