squallzhao
一代宗师

[2018] [欧美] [WEB-1080P] 李尔王 National.Theatre.Live.King.Lear.2018.1080p.WEBRip.x264-RARBG 3.65GB

-->

帖子完整标题:李尔王 National.Theatre.Live.King.Lear.2018.1080p.WEBRip.x264-RARBG 3.65GB



◎标  题 李尔王
◎片  名 National Theatre Live: King Lear
◎年  代 2018
◎产  地 英国
◎语  言 英语
◎上映日期 2018-09-27(英国)
◎IMDb评分 8.5/10 (309人评价)
◎IMDb链接 https://www.imdb.com/title/tt9055926/
◎豆瓣评分 9.1/10 (3909人评价)
◎豆瓣链接 https://movie.douban.com/subject/30256023/
◎片  长 227分钟
◎编  剧 威廉·莎士比亚 William Shakespeare
◎演  员 伊恩·麦克莱恩 Ian McKellen
      乔纳森·贝利 Jonathan Bailey
      西妮德·库萨克 Sinéad Cusack
      菲尔·丹尼尔斯 Phil Daniels
      德乌拉·基尔万 Dervla Kirwan
      塔马拉·劳伦斯 Tamara Lawrance
      多米尼克·马夫海姆 Dominic Mafham
      克莱尔·普莱斯 Claire Price
      卢克·汤普森 Luke Thompson

◎简  介
  如果你在寻找一版教科书式的《李尔王》,那一定就是当今世界上最棒的演员之一、伊恩•麦克莱恩演绎的这一版!
年近80岁高龄的伊恩•麦克莱恩爵士以甘道夫、万磁王等角色深入人心,更是当今世界上最杰出的莎剧演员。在长达半个多世纪的演艺生涯中,他扮演过《李尔王》中大部分主要角色,更不止一次出演李尔王。此次复排之时他的年龄已经相当贴近原作中的人物年龄,为此注入了更为深刻的领悟。《卫报》盛赞麦克莱恩的表演“聪明、清醒、巨细无遗”,《泰晤士报》称其“细致入微又充满力量”。
去年在齐切斯特节日剧院开演后,场场爆满的销售盛况将这部五星制作一路推向了西区舞台。导演乔纳森•蒙比对莎士比亚这部充满残酷、暴力,又不失细腻与悲悯的戏剧进行了富有当代性的改编。
作为莎士比亚戏剧双峰之一的《李尔王》,讲述了一个古代版的分家故事,年老昏聩的李尔王受到了虚伪而谄媚的大女儿和二女儿的哄骗,决...

Video
ID : 1
Format : AVC
Format/Info : Advanced Video Codec
Format profile : [email protected]
Format settings : CABAC / 4 Ref Frames
Format settings, CABAC : Yes
Format settings, Reference frames : 4 frames
Codec ID : avc1
Codec ID/Info : Advanced Video Coding
Duration : 3 h 11 min
Bit rate : 2 500 kb/s
Width : 1 920 pixels
Height : 1 080 pixels
Display aspect ratio : 16:9
Frame rate mode : Constant
Frame rate : 25.000 FPS
Color space : YUV
Chroma subsampling : 4:2:0
Bit depth : 8 bits
Scan type : Progressive
Bits/(Pixel*Frame) : 0.048
Stream size : 3.34 GiB (92%)
Writing library : x264 core 152 r2851M ba24899
Encoding settings : cabac=1 / ref=4 / deblock=1:-1:-1 / analyse=0x3:0x113 / me=umh / subme=9 / psy=1 / psy_rd=1.00:0.15 / mixed_ref=1 / me_range=24 / chroma_me=1 / trellis=2 / 8x8dct=1 / cqm=0 / deadzone=21,11 / fast_pskip=1 / chroma_qp_offset=-3 / threads=16 / lookahead_threads=4 / sliced_threads=0 / nr=0 / decimate=1 / interlaced=0 / bluray_compat=0 / constrained_intra=0 / bframes=3 / b_pyramid=2 / b_adapt=2 / b_bias=0 / direct=3 / weightb=1 / open_gop=0 / weightp=2 / keyint=250 / keyint_min=25 / scenecut=40 / intra_refresh=0 / rc_lookahead=50 / rc=2pass / mbtree=1 / bitrate=2500 / ratetol=1.0 / qcomp=0.60 / qpmin=0 / qpmax=69 / qpstep=4 / cplxblur=20.0 / qblur=0.5 / vbv_maxrate=31250 / vbv_bufsize=31250 / nal_hrd=none / filler=0 / ip_ratio=1.40 / aq=3:1.00
Encoded date : UTC 2022-09-26 18:13:47
Tagged date : UTC 2022-09-26 18:13:47
Codec configuration box : avcC

Audio
ID : 2
Format : AAC LC
Format/Info : Advanced Audio Codec Low Complexity
Codec ID : mp4a-40-2
Duration : 3 h 11 min
Bit rate mode : Constant
Bit rate : 224 kb/s
Channel(s) : 2 channels
Channel layout : L R
Sampling rate : 48.0 kHz
Frame rate : 46.875 FPS (1024 SPF)
Compression mode : Lossy
Stream size : 307 MiB (8%)
Language : English
Default : Yes
Alternate group : 1
Encoded date : UTC 2022-09-26 18:13:47
Tagged date : UTC 2022-09-26 18:13:47





1 个附件 售价 大小 下载 时间

National.Theatre.Live.King.Lear.2018.1080p.WEBRip.x264-RARBG.torrent 0 金币 19.05K 469 次 2月前

#1楼
发帖时间:2022-09-27 08:55:39   |   回复数:0
游客组