squallzhao
一代宗师

[2022] [欧美] [动作] [WEB-1080P] 杀手疾风号 Bullet.Train.2022.1080p.AMZN.WEBRip.DDP5.1.x264-FLUX 8.04GB

-->

帖子完整标题:杀手疾风号 Bullet.Train.2022.1080p.AMZN.WEBRip.DDP5.1.x264-FLUX 8.04GB



◎标  题 杀手疾风号
◎译  名 子弹列车(台) / 杀手列车(港) / 新干线 / 瓢虫 / 杀手界·疾风号 / ブレット・トレイン
◎片  名 Bullet Train
◎年  代 2022
◎产  地 美国
◎类  别 动作 / 悬疑 / 惊悚
◎语  言 英语
◎上映日期 2022-08-03(洛迦诺电影节) / 2022-08-05(美国)
◎IMDb评分 7.5/10 (5978人评价)
◎IMDb链接 https://www.imdb.com/title/tt12593682/
◎豆瓣链接 https://movie.douban.com/subject/35118954/
◎片  长 127分钟
◎导  演 大卫·雷奇 David Leitch
◎编  剧 扎克·奥尔维奇 Zak Olkewicz
      伊坂幸太郎 Kotaro Isaka
◎演  员 布拉德·皮特 Brad Pitt
      乔伊·金 Joey King
      亚伦·泰勒-约翰逊 Aaron Taylor-Johnson
      布莱恩·泰里·亨利 Brian Tyree Henry
      莎姬·贝兹 Zazie Beetz
      安德鲁·浩二 Andrew Koji
      真田广之 Hiroyuki Sanada
      迈克尔·珊农 Michael Shannon
      坏痞兔 Bad Bunny
      罗根·勒曼 Logan Lerman
      桑德拉·布洛克 Sandra Bullock
      丘增 Masi Oka
      哈里森·徐 Harrison Xu
      安德烈·穆尼奥斯 Andrea Muñoz
      达伦·凯兰 Darren Keilan
      帕沙·D.林奇尼科夫 Pasha D. Lychnikoff
      约翰娜·沃茨 Johanna Watts
      米拉吉·格尔比克 Miraj Grbic
      约书亚·萨达索 Yoshua Sudarso
      Ray Buffer Ray Buffer
      伊戈·米基塔斯 Ego Mikitas
      埃梅丽娜·亚当斯 Emelina Adams
      贾森·马修·史密斯 Jason Matthew Smith
      Jim Garrity Jim Garrity
      莉昂·马苏达 Leon Masuda
      艾恩 Ayne
      胡里奥·加贝 Julio Gabay
      多米尼克·刘易斯 Dominic Lewis
      强纳森·赛拉 Jonathan Sela
      莎拉·埃弗林·布拉姆 Sarah Evelyn
      柯克·A·詹金斯 Kirk A. Jenkins

◎简  介
  在东京前往盛冈一趟疾驰的列车上,有五名杀手,他们发现各自的任务其实有着关联。于是问题变成了:谁能活着下车?终点站又有什么在等待着他们?
影片改编自伊坂幸太郎小说《瓢虫》。

Video
ID : 1
Format : AVC
Format/Info : Advanced Video Codec
Format profile : [email protected]
Format settings : CABAC / 4 Ref Frames
Format settings, CABAC : Yes
Format settings, Reference frames : 4 frames
Codec ID : V_MPEG4/ISO/AVC
Duration : 2 h 6 min
Bit rate mode : Constant
Bit rate : 8 435 kb/s
Nominal bit rate : 10 000 kb/s
Width : 1 920 pixels
Height : 800 pixels
Display aspect ratio : 2.40:1
Frame rate mode : Constant
Frame rate : 23.976 (24000/1001/189150) FPS
Color space : YUV
Chroma subsampling : 4:2:0
Bit depth : 8 bits
Scan type : Progressive
Bits/(Pixel*Frame) : 0.229
Stream size : 7.47 GiB (93%)
Default : No
Forced : No
Color range : Limited
Color primaries : BT.709
Transfer characteristics : BT.709
Matrix coefficients : BT.709

Audio
ID : 2
Format : E-AC-3
Format/Info : Enhanced AC-3
Commercial name : Dolby Digital Plus
Codec ID : A_EAC3
Duration : 2 h 6 min
Bit rate mode : Constant
Bit rate : 640 kb/s
Channel(s) : 6 channels
Channel layout : L R C LFE Ls Rs
Sampling rate : 48.0 kHz
Frame rate : 31.250 FPS (1536 SPF)
Compression mode : Lossy
Stream size : 580 MiB (7%)
Language : English
Service kind : Complete Main
Default : No
Forced : No

Text #1
ID : 3
Format : UTF-8
Codec ID : S_TEXT/UTF8
Codec ID/Info : UTF-8 Plain Text
Duration : 1 h 54 min
Bit rate : 2 b/s
Frame rate : 0.011 FPS
Count of elements : 77
Stream size : 1.78 KiB (0%)
Title : Forced
Language : English
Default : Yes
Forced : Yes

Text #2
ID : 4
Format : UTF-8
Codec ID : S_TEXT/UTF8
Codec ID/Info : UTF-8 Plain Text
Duration : 1 h 57 min
Bit rate : 62 b/s
Frame rate : 0.273 FPS
Count of elements : 1924
Stream size : 54.1 KiB (0%)
Language : English
Default : No
Forced : No

Text #3
ID : 5
Format : UTF-8
Codec ID : S_TEXT/UTF8
Codec ID/Info : UTF-8 Plain Text
Duration : 2 h 5 min
Bit rate : 79 b/s
Frame rate : 0.353 FPS
Count of elements : 2656
Stream size : 72.9 KiB (0%)
Title : SDH
Language : English
Default : No
Forced : No

Text #4
ID : 6
Format : UTF-8
Codec ID : S_TEXT/UTF8
Codec ID/Info : UTF-8 Plain Text
Duration : 2 h 4 min
Bit rate : 57 b/s
Frame rate : 0.213 FPS
Count of elements : 1600
Stream size : 53.0 KiB (0%)
Title : European
Language : Spanish
Default : No
Forced : No

Text #5
ID : 7
Format : UTF-8
Codec ID : S_TEXT/UTF8
Codec ID/Info : UTF-8 Plain Text
Duration : 2 h 4 min
Bit rate : 51 b/s
Frame rate : 0.214 FPS
Count of elements : 1607
Stream size : 47.3 KiB (0%)
Title : Latin American
Language : Spanish
Default : No
Forced : No

Text #6
ID : 8
Format : UTF-8
Codec ID : S_TEXT/UTF8
Codec ID/Info : UTF-8 Plain Text
Duration : 2 h 4 min
Bit rate : 51 b/s
Frame rate : 0.199 FPS
Count of elements : 1492
Stream size : 46.7 KiB (0%)
Language : Italian
Default : No
Forced : No

Text #7
ID : 9
Format : UTF-8
Codec ID : S_TEXT/UTF8
Codec ID/Info : UTF-8 Plain Text
Duration : 2 h 4 min
Bit rate : 47 b/s
Frame rate : 0.161 FPS
Count of elements : 1209
Stream size : 43.5 KiB (0%)
Language : Dutch
Default : No
Forced : No

Text #8
ID : 10
Format : UTF-8
Codec ID : S_TEXT/UTF8
Codec ID/Info : UTF-8 Plain Text
Duration : 2 h 4 min
Bit rate : 56 b/s
Frame rate : 0.214 FPS
Count of elements : 1601
Stream size : 51.8 KiB (0%)
Title : Brazilian
Language : Portuguese
Default : No
Forced : No

Text #9
ID : 11
Format : UTF-8
Codec ID : S_TEXT/UTF8
Codec ID/Info : UTF-8 Plain Text
Duration : 2 h 4 min
Bit rate : 50 b/s
Frame rate : 0.160 FPS
Count of elements : 1196
Stream size : 46.4 KiB (0%)
Language : Swedish
Default : No
Forced : No

Menu
02:06:36.000 : en:Credits





1 个附件 售价 大小 下载 时间

Bullet.Train.2022.1080p.AMZN.WEBRip.DDP5.1.x264-FLUX.torrent 0 金币 20.74K 2338 次 2月前

#1楼
发帖时间:2022-09-27 08:57:54   |   回复数:0
游客组