squallzhao
一代宗师

[2022] [欧美] [喜剧] [WEB-1080P] 尸体游戏 Bodies.Bodies.Bodies.2022.1080p.WEBRip.DDP5.1.Atmos.x264-NOGRP 4.89GB

-->

帖子完整标题:尸体游戏 Bodies.Bodies.Bodies.2022.1080p.WEBRip.DDP5.1.Atmos.x264-NOGRP 4.89GB



◎标  题 尸体游戏
◎译  名 天黑请毙命(台) / 尸体,尸体,尸体 / 狼人杀(豆友译名) / This Is Not A Safe Space
◎片  名 Bodies, Bodies, Bodies
◎年  代 2022
◎产  地 美国
◎类  别 喜剧 / 惊悚 / 恐怖
◎语  言 英语
◎上映日期 2022-03-14(西南偏南电影节) / 2022-08-05(美国)
◎IMDb评分 6.7/10 (4845人评价)
◎IMDb链接 https://www.imdb.com/title/tt8110652/
◎豆瓣评分 6.4/10 (211人评价)
◎豆瓣链接 https://movie.douban.com/subject/30163010/
◎片  长 95分钟
◎导  演 哈里纳·雷金 Halina Reijn
◎编  剧 科洛·奥野 Chloe Okuno
◎演  员 皮特·戴维森 Pete Davidson
      阿曼德拉·斯坦伯格 Amandla Stenberg
      玛丽亚·巴卡洛娃 Maria Bakalova
      瑞秋·塞诺特 Rachel Sennott
      李·佩斯 Lee Pace
      米哈拉·赫罗德 Myha’la Herrold
      康纳·欧麦利 Conner O'malley
      加斯佩尔·沃尔夫 Jasper Wolf

◎简  介
  人前手牵手,闭眼下毒手!
究竟谁才是真朋友、谁又是黑暗中的凶手?
讲述一群朋友在偏远的周末派对上玩了一个名叫“Bodies Bodie Bodies”模拟谋杀的游戏,结果却发生了真正的谋杀。

Video
ID : 1
Format : AVC
Format/Info : Advanced Video Codec
Format profile : [email protected]
Format settings : CABAC / 5 Ref Frames
Format settings, CABAC : Yes
Format settings, Reference frames : 5 frames
Codec ID : V_MPEG4/ISO/AVC
Duration : 1 h 33 min
Bit rate : 6 689 kb/s
Width : 1 918 pixels
Height : 802 pixels
Display aspect ratio : 2.40:1
Frame rate mode : Constant
Frame rate : 23.976 (24000/1001/189150) FPS
Color space : YUV
Chroma subsampling : 4:2:0
Bit depth : 8 bits
Scan type : Progressive
Bits/(Pixel*Frame) : 0.181
Stream size : 4.38 GiB (90%)
Default : Yes
Forced : No
Color range : Limited
Color primaries : BT.709
Transfer characteristics : BT.709
Matrix coefficients : BT.709

Audio
ID : 2
Format : E-AC-3 JOC
Format/Info : Enhanced AC-3 with Joint Object Coding
Commercial name : Dolby Digital Plus with Dolby Atmos
Codec ID : A_EAC3
Duration : 1 h 33 min
Bit rate mode : Constant
Bit rate : 768 kb/s
Channel(s) : 6 channels
Channel layout : L R C LFE Ls Rs
Sampling rate : 48.0 kHz
Frame rate : 31.250 FPS (1536 SPF)
Compression mode : Lossy
Stream size : 516 MiB (10%)
Language : English
Service kind : Complete Main
Default : Yes
Forced : No
Complexity index : 16
Number of dynamic objects : 15
Bed channel count : 1 channel
Bed channel configuration : LFE

Text #1
ID : 3
Format : UTF-8
Codec ID : S_TEXT/UTF8
Codec ID/Info : UTF-8 Plain Text
Duration : 1 h 27 min
Bit rate : 69 b/s
Frame rate : 0.301 FPS
Count of elements : 1586
Stream size : 44.4 KiB (0%)
Language : English
Default : Yes
Forced : No

Text #2
ID : 4
Format : UTF-8
Codec ID : S_TEXT/UTF8
Codec ID/Info : UTF-8 Plain Text
Duration : 1 h 33 min
Bit rate : 70 b/s
Frame rate : 0.315 FPS
Count of elements : 1772
Stream size : 48.5 KiB (0%)
Title : SDH
Language : English
Default : No
Forced : No





1 个附件 售价 大小 下载 时间

Bodies.Bodies.Bodies.2022.1080p.WEBRip.DDP5.1.Atmos.x264-NOGRP.torrent 0 金币 25.09K 595 次 2月前

#1楼
发帖时间:2022-09-27 14:07:13   |   回复数:0
游客组