squallzhao
一代宗师

[2018] [欧美] [其它] [WEB-1080P] 史酷比与美食幽灵 Scooby-Doo.and.the.Gourmet.Ghost.2018.1080p.HMAX.WEBRip.DD5.1.x264-tiju

-->

帖子完整标题:史酷比与美食幽灵 Scooby-Doo.and.the.Gourmet.Ghost.2018.1080p.HMAX.WEBRip.DD5.1.x264-tijuco 4.63GB



◎标  题 史酷比与美食幽灵
◎片  名 Scooby-Doo! and the Gourmet Ghost
◎年  代 2018
◎产  地 美国
◎类  别 动画 / 犯罪 / 冒险
◎语  言 英语
◎上映日期 2018-08-28(美国)
◎IMDb评分 6.7/10 (1040人评价)
◎IMDb链接 https://www.imdb.com/title/tt8660492/
◎豆瓣评分 6.1/10 (114人评价)
◎豆瓣链接 https://movie.douban.com/subject/30312323/
◎片  长 77分钟
◎导  演 道格·墨菲 Doug Murphy
◎演  员 吉娅达·德·劳伦蒂斯 Giada De Laurentiis
      巴比·福雷 Bobby Flay
      马修·里沃德 Matthew Lillard
      凯特·米库奇 Kate Micucci

◎标  签 动画 / 冒险 / 美国 / 喜剧 / 美食 / 史酷比 / 马修·里沃德 / 吉娅达·德·劳伦蒂斯

◎简  介
  大家最爱的少年侦探们将开启一段难忘的新英格兰探险之旅。他们将要侦察一家历史悠久的殖民旅馆的幽灵事件,而这旅馆其实是一家无与伦比的美食度假村。

Video
ID : 1
Format : AVC
Format/Info : Advanced Video Codec
Format profile : [email protected]
Format settings : CABAC / 4 Ref Frames
Format settings, CABAC : Yes
Format settings, Reference frames : 4 frames
Codec ID : V_MPEG4/ISO/AVC
Duration : 1 h 17 min
Bit rate mode : Variable
Bit rate : 8 250 kb/s
Maximum bit rate : 12.4 Mb/s
Width : 1 920 pixels
Height : 1 080 pixels
Display aspect ratio : 16:9
Frame rate mode : Constant
Frame rate : 23.976 (24000/1001/189150) FPS
Color space : YUV
Chroma subsampling : 4:2:0
Bit depth : 8 bits
Scan type : Progressive
Bits/(Pixel*Frame) : 0.166
Stream size : 4.42 GiB (95%)
Writing library : x264 core 157 r2965 861cec4
Encoding settings : cabac=1 / ref=4 / deblock=1:0:0 / analyse=0x3:0x113 / me=hex / subme=7 / psy=1 / psy_rd=1.00:0.00 / mixed_ref=1 / me_range=16 / chroma_me=1 / trellis=1 / 8x8dct=1 / cqm=0 / deadzone=21,11 / fast_pskip=1 / chroma_qp_offset=-2 / threads=34 / lookahead_threads=5 / sliced_threads=0 / nr=0 / decimate=1 / interlaced=0 / bluray_compat=0 / constrained_intra=0 / bframes=3 / b_pyramid=2 / b_adapt=1 / b_bias=0 / direct=1 / weightb=1 / open_gop=0 / weightp=2 / keyint=96 / keyint_min=96 / scenecut=40 / intra_refresh=0 / rc_lookahead=40 / rc=2pass / mbtree=1 / bitrate=8250 / ratetol=1.0 / qcomp=0.60 / qpmin=0 / qpmax=69 / qpstep=4 / cplxblur=20.0 / qblur=0.5 / vbv_maxrate=12375 / vbv_bufsize=6187 / nal_hrd=vbr / filler=0 / ip_ratio=1.40 / aq=1:1.00
Default : Yes
Forced : No
Color range : Limited
Color primaries : BT.709
Transfer characteristics : BT.709
Matrix coefficients : BT.709

Audio
ID : 2
Format : AC-3
Format/Info : Audio Coding 3
Commercial name : Dolby Digital
Codec ID : A_AC3
Duration : 1 h 17 min
Bit rate mode : Constant
Bit rate : 384 kb/s
Channel(s) : 6 channels
Channel layout : L R C LFE Ls Rs
Sampling rate : 48.0 kHz
Frame rate : 31.250 FPS (1536 SPF)
Compression mode : Lossy
Stream size : 212 MiB (4%)
Title : English
Language : English
Service kind : Complete Main
Default : Yes
Forced : No

Text #1
ID : 3
Format : UTF-8
Codec ID : S_TEXT/UTF8
Codec ID/Info : UTF-8 Plain Text
Duration : 1 h 14 min
Bit rate : 394 b/s
Frame rate : 0.465 FPS
Count of elements : 2078
Stream size : 215 KiB (0%)
Title : English (SDH)
Language : English
Default : No
Forced : No

Text #2
ID : 4
Format : UTF-8
Codec ID : S_TEXT/UTF8
Codec ID/Info : UTF-8 Plain Text
Duration : 1 h 17 min
Bit rate : 3 b/s
Frame rate : 0.003 FPS
Count of elements : 16
Stream size : 2.06 KiB (0%)
Title : Spanish (Forced)
Language : Spanish
Default : No
Forced : Yes

Text #3
ID : 5
Format : UTF-8
Codec ID : S_TEXT/UTF8
Codec ID/Info : UTF-8 Plain Text
Duration : 1 h 17 min
Bit rate : 295 b/s
Frame rate : 0.300 FPS
Count of elements : 1390
Stream size : 167 KiB (0%)
Title : Spanish
Language : Spanish
Default : No
Forced : No





1 个附件 售价 大小 下载 时间

Scooby-Doo.and.the.Gourmet.Ghost.2018.1080p.HMAX.WEBRip.DD5.1.x264-tijuco.torrent 0 金币 23.83K 168 次 2月前

#1楼
发帖时间:2022-09-27 22:06:16   |   回复数:0
游客组