travismk
一代宗师

[2016] [欧美] [喜剧] [WEB-1080P] 分裂 Split.2016.1080p.AMZN.WEBRip.DDP5.1.x264-SiGLA 4.85GB

-->

帖子完整标题:分裂 Split.2016.1080p.AMZN.WEBRip.DDP5.1.x264-SiGLA 4.85GB



◎标  题 分裂
◎片  名 Split
◎年  代 2016
◎产  地 美国
◎类  别 喜剧 / 爱情 / 运动
◎语  言 英语
◎上映日期 2016-08-02(美国)
◎IMDb评分 2.9/10 (596人评价)
◎IMDb链接 https://www.imdb.com/title/tt2660118/
◎豆瓣评分 3.8/10 (52人评价)
◎豆瓣链接 https://movie.douban.com/subject/25744103/
◎片  长 90分钟
◎导  演 Jamie Buckner Jamie Buckner
◎编  剧 Jamie Buckner Jamie Buckner
◎演  员 因德尔·库马尔 Inder Kumar
      瑞秋·唐尼 Rachel Downey
      本杰明伍德 Benjamin Wood
      Vin Morreale Jr. Vin Morreale Jr.
      Pete Weber
      丽雅·罗伯茨 Leah Roberts
      MacLeod Andrews MacLeod Andrews

◎标  签 爱情 / 喜剧 / 香港 / 运动 / 纪录片 / 短片 / 治愈 / 惊悚

◎简  介
    SPLIT is a peek into the life of Cassie, an over-achiever with a thing for bowlers whose life takes an unexpected turn when she reads a strangely ominous statistic in the local newspaper as her 30th birthday looms. Chronically absent and infamously eccentric, her recently deceased, professional bowler father has left her with not only a freeloading mother on her couch, but an undying notion in her head that in order to live up to her own "above average" standards, she has just under a month to meet and marry the man of her dreams. Despite pleas from her friends, she begins to hatch a plan, but a fateful run in at her local lanes makes her wonder what she really wants - the 7... or the 10?

Video
ID : 1
Format : AVC
Format/Info : Advanced Video Codec
Format profile : [email protected]
Format settings : CABAC / 4 Ref Frames
Format settings, CABAC : Yes
Format settings, Reference frames : 4 frames
Codec ID : V_MPEG4/ISO/AVC
Duration : 1 h 32 min
Bit rate mode : Constant
Bit rate : 6 855 kb/s
Nominal bit rate : 10 000 kb/s
Width : 1 920 pixels
Height : 1 080 pixels
Display aspect ratio : 16:9
Frame rate mode : Constant
Frame rate : 23.976 (24000/1001/189150) FPS
Color space : YUV
Chroma subsampling : 4:2:0
Bit depth : 8 bits
Scan type : Progressive
Bits/(Pixel*Frame) : 0.138
Stream size : 4.44 GiB (91%)
Default : Yes
Forced : No
Color range : Limited
Color primaries : BT.709
Transfer characteristics : BT.709
Matrix coefficients : BT.709

Audio
ID : 2
Format : E-AC-3
Format/Info : Enhanced AC-3
Commercial name : Dolby Digital Plus
Codec ID : A_EAC3
Duration : 1 h 32 min
Bit rate mode : Constant
Bit rate : 640 kb/s
Channel(s) : 6 channels
Channel layout : L R C LFE Ls Rs
Sampling rate : 48.0 kHz
Frame rate : 31.250 FPS (1536 SPF)
Compression mode : Lossy
Stream size : 424 MiB (9%)
Language : English
Service kind : Complete Main
Default : Yes
Forced : No

Text #1
ID : 3
Format : UTF-8
Codec ID : S_TEXT/UTF8
Codec ID/Info : UTF-8 Plain Text
Duration : 1 h 32 min
Bit rate : 82 b/s
Frame rate : 0.321 FPS
Count of elements : 1772
Stream size : 55.7 KiB (0%)
Language : English
Default : No
Forced : No

Text #2
ID : 4
Format : UTF-8
Codec ID : S_TEXT/UTF8
Codec ID/Info : UTF-8 Plain Text
Duration : 1 h 32 min
Bit rate : 90 b/s
Frame rate : 0.344 FPS
Count of elements : 1904
Stream size : 60.9 KiB (0%)
Title : SDH
Language : English
Default : No
Forced : No





1 个附件 售价 大小 下载 时间

Split.2016.1080p.AMZN.WEBRip.DDP5.1.x264-SiGLA.torrent 0 金币 24.87K 245 次 2月前

#1楼
发帖时间:2022-11-28 17:33:21   |   回复数:0
游客组