squallzhao
一代宗师

[2012] [其它] [喜剧] [WEB-1080P] 罗马角斗士 Gladiators.of.Rome.2012.1080p.AMZN.WEBRip.DDP5.1.x264-Kitsune 6.09GB

-->

帖子完整标题:罗马角斗士 Gladiators.of.Rome.2012.1080p.AMZN.WEBRip.DDP5.1.x264-Kitsune 6.09GB



◎标  题 罗马角斗士
◎译  名 Not Born to Be Gladiators(原名) / Gladiators of Rome(英国) / Prawie jak gladiator(波兰) / 글래디에이터: 게으른 영웅의 탄생 3D(韩)
◎片  名 Gladiatori di Roma
◎年  代 2012
◎产  地 意大利
◎类  别 喜剧 / 动画 / 冒险
◎语  言 英语
◎上映日期 2012-10-18(意大利) / 2013-01-11(波兰) / 2013-02-07(俄罗斯) / 2013-02-21(以色列) / 2013-03-14(韩国) / 2013-04-25(葡萄牙) / 2013-07-12(巴西)
◎IMDb评分 5.2/10 (1475人评价)
◎IMDb链接 https://www.imdb.com/title/tt1946347/
◎豆瓣链接 https://movie.douban.com/subject/23048774/
◎片  长 94分钟
◎导  演 伊齐奥·斯特拉菲 Iginio Straffi
◎演  员 卢卡·阿金泰罗 Luca Argentero
      劳拉·齐亚蒂 Laura Chiatti
      朱莉安·浩夫 Julianne Hough
      艾玛努艾拉波斯塔斯基尼 Emanuela Postacchini

◎简  介
  A new hero is born in this hilarious, animated adventure of epic proportions. Timo, a student at the Gladiators' Academy in Rome, has no desire to become a legendary gladiator like his [email protected] http://t.cn/RL2ypqe

Video
ID : 1
Format : AVC
Format/Info : Advanced Video Codec
Format profile : [email protected]
Format settings : CABAC / 4 Ref Frames
Format settings, CABAC : Yes
Format settings, Reference frames : 4 frames
Codec ID : V_MPEG4/ISO/AVC
Duration : 1 h 34 min
Bit rate mode : Constant
Bit rate : 8 580 kb/s
Nominal bit rate : 10 000 kb/s
Width : 1 920 pixels
Height : 1 080 pixels
Display aspect ratio : 16:9
Frame rate mode : Constant
Frame rate : 23.976 (24000/1001/189150) FPS
Color space : YUV
Chroma subsampling : 4:2:0
Bit depth : 8 bits
Scan type : Progressive
Bits/(Pixel*Frame) : 0.173
Stream size : 5.67 GiB (93%)
Language : English
Default : Yes
Forced : No
Color range : Limited
Color primaries : BT.709
Transfer characteristics : BT.709
Matrix coefficients : BT.709

Audio
ID : 2
Format : E-AC-3
Format/Info : Enhanced AC-3
Commercial name : Dolby Digital Plus
Codec ID : A_EAC3
Duration : 1 h 34 min
Bit rate mode : Constant
Bit rate : 640 kb/s
Channel(s) : 6 channels
Channel layout : L R C LFE Ls Rs
Sampling rate : 48.0 kHz
Frame rate : 31.250 FPS (1536 SPF)
Compression mode : Lossy
Stream size : 433 MiB (7%)
Title : English / DD+ / 5.1
Language : English
Service kind : Complete Main
Default : Yes
Forced : No

Text #1
ID : 3
Format : UTF-8
Codec ID : S_TEXT/UTF8
Codec ID/Info : UTF-8 Plain Text
Duration : 1 h 28 min
Bit rate : 52 b/s
Frame rate : 0.215 FPS
Count of elements : 1142
Stream size : 34.1 KiB (0%)
Language : English
Default : No
Forced : No

Text #2
ID : 4
Format : UTF-8
Codec ID : S_TEXT/UTF8
Codec ID/Info : UTF-8 Plain Text
Duration : 1 h 28 min
Bit rate : 59 b/s
Frame rate : 0.262 FPS
Count of elements : 1391
Stream size : 38.7 KiB (0%)
Title : SDH
Language : English
Default : No
Forced : No





1 个附件 售价 大小 下载 时间

Gladiators.of.Rome.2012.1080p.AMZN.WEBRip.DDP5.1.x264-Kitsune.torrent 0 金币 15.87K 322 次 2月前

#1楼
发帖时间:2022-11-28 18:37:26   |   回复数:0
游客组