squallzhao
一代宗师

[更 早] [其它] [剧情] [WEB-1080P] 萨拉丁 Saladin.1963.ARABIC.1080p.WEBRip.x264-VXT 3.70GB

-->

帖子完整标题:萨拉丁 Saladin.1963.ARABIC.1080p.WEBRip.x264-VXT 3.70GB



◎标  题 萨拉丁
◎译  名 Saladin and the Great Crusades
◎片  名 El Naser Salah el Dine
◎年  代 1963
◎产  地 埃及
◎类  别 剧情 / 动作 / 冒险
◎语  言 阿拉伯语
◎上映日期 1963-07(莫斯科电影节)
◎IMDb评分 7.6/10 (2584人评价)
◎IMDb链接 https://www.imdb.com/title/tt0057357/
◎豆瓣评分 7.6/10 (124人评价)
◎豆瓣链接 https://movie.douban.com/subject/3240140/
◎片  长 175 分钟(Lebanon)
◎导  演 尤瑟夫·夏因 Youssef Chahine
◎编  剧 尤瑟夫·夏因 Youssef Chahine
      Naguib Mahfouz Naguib Mahfouz
      伊泽丁·祖勒菲卡尔 Ezzel Dine Zulficar
◎演  员 Ahmed Mazhar Ahmed Mazhar
      纳迪娅·卢特菲 Nadia Lutfi
      Salah Zulfikar Salah Zulfikar
      Hussein Riad Hussein Riad
      Tewfik El Dekn Tewfik El Dekn
      Mahmoud El-Meliguy Mahmoud El-Meliguy
      Omar El-Hariri Omar El-Hariri
      Nahed Sabri Nahed Sabri
      尤瑟夫·夏因 Youssef Chahine
      安杰洛·弗朗切斯科·拉瓦尼诺 Angelo Francesco Lavagnino

◎简  介
  11世纪末,以英、法、德等国组成的十字军发动了第三次东征,大肆侵略阿拉伯土地。埃及军民在萨拉丁苏丹(即国王)的亲自率领下,奋起反抗。在亚历山大港一战中,击退了十字军的进攻,给十字军以沉重打击。为了收复圣地耶路撒冷,萨拉丁积极准备,联合阿拉伯各国军队,共同对敌。在赫淀山战役中,萨拉丁派主将阿瓦姆夜袭敌营,捣毁敌军的蓄水罐,引敌下山,采用“火墙战术”,打得十字军落花流水。结果,狂妄自大的法军首领里诺被俘,并得到了应有的惩罚。
为了实现占有耶路撒冷的野心,法军首领里诺的妻子弗吉尼亚从欧洲请来以英王理查为首的各国援军。十字军凭借战略优势向阿克要塞进攻,由于阿克城总督利欲熏心,卖身投敌,阿拉伯军民虽经苦战,但阿克城最终失守。十字军占领了阿克城,继而又发动了对阿什克伦城的进攻,英王理查急于取胜,动用大型战车攻城。萨拉丁面对强敌,暂时弃城而走,诱敌于沼泽地带,变被...

Video
ID : 1
Format : AVC
Format/Info : Advanced Video Codec
Format profile : [email protected]
Format settings : CABAC / 4 Ref Frames
Format settings, CABAC : Yes
Format settings, Reference frames : 4 frames
Codec ID : avc1
Codec ID/Info : Advanced Video Coding
Duration : 3 h 14 min
Bit rate : 2 500 kb/s
Width : 1 920 pixels
Height : 816 pixels
Display aspect ratio : 2.35:1
Frame rate mode : Constant
Frame rate : 24.000 FPS
Color space : YUV
Chroma subsampling : 4:2:0
Bit depth : 8 bits
Scan type : Progressive
Bits/(Pixel*Frame) : 0.066
Stream size : 3.39 GiB (92%)
Writing library : x264 core 152 r2851M ba24899
Encoding settings : cabac=1 / ref=4 / deblock=1:-1:-1 / analyse=0x3:0x113 / me=umh / subme=9 / psy=1 / psy_rd=1.00:0.15 / mixed_ref=1 / me_range=24 / chroma_me=1 / trellis=2 / 8x8dct=1 / cqm=0 / deadzone=21,11 / fast_pskip=1 / chroma_qp_offset=-3 / threads=16 / lookahead_threads=4 / sliced_threads=0 / nr=0 / decimate=1 / interlaced=0 / bluray_compat=0 / constrained_intra=0 / bframes=3 / b_pyramid=2 / b_adapt=2 / b_bias=0 / direct=3 / weightb=1 / open_gop=0 / weightp=2 / keyint=250 / keyint_min=25 / scenecut=40 / intra_refresh=0 / rc_lookahead=50 / rc=2pass / mbtree=1 / bitrate=2500 / ratetol=1.0 / qcomp=0.60 / qpmin=0 / qpmax=69 / qpstep=4 / cplxblur=20.0 / qblur=0.5 / vbv_maxrate=31250 / vbv_bufsize=31250 / nal_hrd=none / filler=0 / ip_ratio=1.40 / aq=3:1.00
Encoded date : UTC 2022-11-29 12:43:05
Tagged date : UTC 2022-11-29 12:43:05
Codec configuration box : avcC

Audio
ID : 2
Format : AAC LC
Format/Info : Advanced Audio Codec Low Complexity
Codec ID : mp4a-40-2
Duration : 3 h 14 min
Duration_LastFrame : -11 ms
Bit rate mode : Constant
Bit rate : 224 kb/s
Channel(s) : 2 channels
Channel layout : L R
Sampling rate : 48.0 kHz
Frame rate : 46.875 FPS (1024 SPF)
Compression mode : Lossy
Stream size : 311 MiB (8%)
Language : Arabic
Default : Yes
Alternate group : 1
Encoded date : UTC 2022-11-29 12:43:05
Tagged date : UTC 2022-11-29 12:43:05





1 个附件 售价 大小 下载 时间

Saladin.1963.ARABIC.1080p.WEBRip.x264-VXT.torrent 0 金币 19.24K 756 次 2月前

#1楼
发帖时间:2022-11-29 22:36:27   |   回复数:0
游客组