squallzhao
一代宗师

[2021] [其它] [剧情] [WEB-1080P] 阿黄 The.Old.Mans.Dog.2021.VIETNAMESE.1080p.NF.WEBRip.DDP5.1.x264-luvHANA 5.29GB

-->

帖子完整标题:阿黄 The.Old.Mans.Dog.2021.VIETNAMESE.1080p.NF.WEBRip.DDP5.1.x264-luvHANA 5.29GB



◎标  题 阿黄
◎片  名 Cậu Vàng
◎年  代 2021
◎产  地 越南
◎类  别 剧情
◎IMDb评分 2.8/10 (53人评价)
◎IMDb链接 https://www.imdb.com/title/tt13683098/
◎豆瓣链接 https://movie.douban.com/subject/35304707/
◎导  演 陈宇水 Truong Vu Thuy
◎编  剧 裴强 Bùi Cường
◎演  员 友洲 Huu Chau
      潮春 Chiều Xuân

Video
ID : 1
Format : AVC
Format/Info : Advanced Video Codec
Format profile : [email protected]
Format settings : CABAC / 4 Ref Frames
Format settings, CABAC : Yes
Format settings, Reference frames : 4 frames
Codec ID : V_MPEG4/ISO/AVC
Duration : 1 h 35 min
Bit rate mode : Variable
Bit rate : 7 303 kb/s
Maximum bit rate : 20.0 Mb/s
Width : 1 920 pixels
Height : 1 080 pixels
Display aspect ratio : 16:9
Frame rate mode : Constant
Frame rate : 24.000 FPS
Color space : YUV
Chroma subsampling : 4:2:0
Bit depth : 8 bits
Scan type : Progressive
Bits/(Pixel*Frame) : 0.147
Stream size : 4.87 GiB (92%)
Writing library : x264 core 148 r2727 7d026e8
Encoding settings : cabac=1 / ref=4 / deblock=1:0:0 / analyse=0x3:0x111 / me=umh / subme=10 / psy=1 / psy_rd=1.00:0.00 / mixed_ref=1 / me_range=120 / chroma_me=1 / trellis=2 / 8x8dct=1 / cqm=0 / deadzone=21,11 / fast_pskip=1 / chroma_qp_offset=-2 / threads=6 / lookahead_threads=1 / sliced_threads=0 / nr=0 / decimate=1 / interlaced=0 / bluray_compat=0 / stitchable=1 / constrained_intra=0 / bframes=16 / b_pyramid=2 / b_adapt=2 / b_bias=0 / direct=3 / weightb=1 / open_gop=0 / weightp=2 / keyint=240 / keyint_min=121 / scenecut=0 / intra_refresh=0 / rc_lookahead=240 / rc=crf / mbtree=1 / crf=19.0 / qcomp=0.50 / qpmin=6 / qpmax=51 / qpstep=4 / vbv_maxrate=20000 / vbv_bufsize=25000 / crf_max=0.0 / nal_hrd=vbr / filler=0 / ip_ratio=1.40 / aq=1:0.80
Default : Yes
Forced : No

Audio
ID : 2
Format : E-AC-3
Format/Info : Enhanced AC-3
Commercial name : Dolby Digital Plus
Codec ID : A_EAC3
Duration : 1 h 35 min
Bit rate mode : Constant
Bit rate : 640 kb/s
Channel(s) : 6 channels
Channel layout : L R C LFE Ls Rs
Sampling rate : 48.0 kHz
Frame rate : 31.250 FPS (1536 SPF)
Compression mode : Lossy
Stream size : 437 MiB (8%)
Title : Vietnamese
Language : Vietnamese
Service kind : Complete Main
Default : Yes
Forced : No

Text #1
ID : 3
Format : UTF-8
Codec ID : S_TEXT/UTF8
Codec ID/Info : UTF-8 Plain Text
Duration : 1 h 31 min
Bit rate : 37 b/s
Frame rate : 0.155 FPS
Count of elements : 851
Stream size : 25.1 KiB (0%)
Title : English
Language : English
Default : No
Forced : No

Text #2
ID : 4
Format : UTF-8
Codec ID : S_TEXT/UTF8
Codec ID/Info : UTF-8 Plain Text
Duration : 1 h 35 min
Bit rate : 59 b/s
Frame rate : 0.191 FPS
Count of elements : 1090
Stream size : 41.8 KiB (0%)
Title : Vietnamese
Language : Vietnamese
Default : No
Forced : No





1 个附件 售价 大小 下载 时间

The.Old.Mans.Dog.2021.VIETNAMESE.1080p.NF.WEBRip.DDP5.1.x264-luvHANA.torrent 0 金币 13.88K 420 次 2月前

#1楼
发帖时间:2022-11-29 22:38:02   |   回复数:0
游客组