squallzhao
一代宗师

[2013] [其它] [剧情] [WEB-1080P] 北海滩 Nordstrand.2013.GERMAN.1080p.WEBRip.AAC2.0.x264-KUCHU 3.20GB

-->

帖子完整标题:北海滩 Nordstrand.2013.GERMAN.1080p.WEBRip.AAC2.0.x264-KUCHU 3.20GB



◎标  题 北海滩
◎片  名 Nordstrand
◎年  代 2013
◎产  地 德国
◎类  别 剧情
◎语  言 德语
◎上映日期 2013-01-22
◎IMDb评分 6.7/10 (141人评价)
◎IMDb链接 https://www.imdb.com/title/tt2526866/
◎豆瓣链接 https://movie.douban.com/subject/24841742/
◎片  长 89分钟
◎演  员 Luise Berndt Luise Berndt

◎简  介
  NORDSTRAND tells the story of two brothers, Marten and Volker, who meet in their parents' now empty house on the coast. Older brother Marten would like to pick up together their mother from prison where she has been since the death of their violent father years ago. But Volker seems only to have come in order to sell the house. He apparently can't forgive neither his mother nor...

Video
ID : 1
Format : AVC
Format/Info : Advanced Video Codec
Format profile : [email protected]
Format settings : CABAC / 4 Ref Frames
Format settings, CABAC : Yes
Format settings, Reference frames : 4 frames
Codec ID : V_MPEG4/ISO/AVC
Duration : 1 h 29 min
Bit rate mode : Constant
Bit rate : 5 014 kb/s
Nominal bit rate : 5 500 kb/s
Width : 1 920 pixels
Height : 800 pixels
Display aspect ratio : 2.40:1
Frame rate mode : Constant
Frame rate : 25.000 FPS
Color space : YUV
Chroma subsampling : 4:2:0
Bit depth : 8 bits
Scan type : Progressive
Bits/(Pixel*Frame) : 0.131
Stream size : 3.12 GiB (97%)
Writing library : x264 core 155 r2917 0a84d98
Encoding settings : cabac=1 / ref=3 / deblock=1:-1:-1 / analyse=0x3:0x113 / me=hex / subme=8 / psy=1 / psy_rd=1.00:0.15 / mixed_ref=1 / me_range=16 / chroma_me=1 / trellis=2 / 8x8dct=1 / cqm=0 / deadzone=21,11 / fast_pskip=1 / chroma_qp_offset=-3 / threads=24 / lookahead_threads=4 / sliced_threads=0 / nr=0 / decimate=1 / interlaced=0 / bluray_compat=0 / constrained_intra=0 / bframes=5 / b_pyramid=2 / b_adapt=1 / b_bias=0 / direct=3 / weightb=1 / open_gop=0 / weightp=2 / keyint=50 / keyint_min=26 / scenecut=0 / intra_refresh=0 / rc_lookahead=50 / rc=cbr / mbtree=1 / bitrate=5500 / ratetol=1.0 / qcomp=0.60 / qpmin=0 / qpmax=69 / qpstep=4 / vbv_maxrate=5500 / vbv_bufsize=11000 / nal_hrd=cbr / filler=1 / ip_ratio=1.40 / aq=1:1.00
Language : German
Default : Yes
Forced : No

Audio
ID : 2
Format : AAC LC
Format/Info : Advanced Audio Codec Low Complexity
Codec ID : A_AAC-2
Duration : 1 h 29 min
Bit rate : 128 kb/s
Channel(s) : 2 channels
Channel layout : L R
Sampling rate : 48.0 kHz
Frame rate : 46.875 FPS (1024 SPF)
Compression mode : Lossy
Stream size : 81.6 MiB (2%)
Language : German
Default : Yes
Forced : No

Text
ID : 3
Format : UTF-8
Codec ID : S_TEXT/UTF8
Codec ID/Info : UTF-8 Plain Text
Duration : 1 h 28 min
Bit rate : 29 b/s
Frame rate : 0.117 FPS
Count of elements : 617
Stream size : 18.8 KiB (0%)
Language : English
Default : Yes
Forced : No





1 个附件 售价 大小 下载 时间

Nordstrand.2013.GERMAN.1080p.WEBRip.AAC2.0.x264-KUCHU.torrent 0 金币 16.62K 371 次 2月前

#1楼
发帖时间:2022-11-29 22:38:52   |   回复数:0
游客组