原生系统
一派掌门

[2021] [大陆] [悬疑] [打包] [BT下载][双探.Double.Tap][全16集][国语中字.无水印][WEB-MKV][1080P][Vampire][50FPS.HDR.10bit版]

-->


◎译  名 Double Tap

◎片  名 双探

◎年  代 2021

◎产  地 中国大陆

◎类  别 悬疑 / 犯罪

◎语  言 汉语普通话

◎上映日期 2021-09-09(中国大陆)

◎IMDb评分 0/10 from 0 users

◎IMDb链接 https://www.imdb.com/title/tt15437350

◎豆瓣评分 7.3/10 from 25647 users

◎豆瓣链接 https://movie.douban.com/subject/34807868

◎集  数 16

◎片  长 45分钟

◎导  演 费聿竹 Yuzhu Fei / 陈宙飞 Zhoufei Chen

◎编  剧 贾长安 Chang-an Jia

◎主  演 段奕宏 Yihong Duan

       大鹏 Chengpeng Dong

       曾美慧孜 Meihuizi Zeng

       郑楚一 Chuyi Zheng

       张国强 Guoqiang Zhang

       邢佳栋 Jiadong Xing

       刘威葳 Vieven Liu

       刘亦然 Yiran Liu

       申琦 Qi Shen

       张林 Lin Zhang

       衣云鹤 Yunhe Yi

       冯兵 Bing Feng

       董博 Bo Dong

       朱梓瑜 Ziyu Zhu

       程禹森 Yusen Cheng

       魏震 Zhen Wei

       李乃文 Naiwen Li

       陈明昊 Minghao Chen

       高峰 Feng Gao

       周铁 Tie Zhou

       朱辉 Hui Zhu

       赵芮 Rui Zhao

       郭涛 Tao Guo

       任宇 Yu Ren

       朱洪振 Hongzhen Zhu

       常玉宏 Yuhong Chang

       肖聪 Cong Xiao

       王瑾 Jing Wang

       霍卫民 Weimin Huo

       潘一飞 Payne

       葛铮 Zheng Ge

       蒲星宇 Xingyu Pu

       关皓文 Haowen Guan

       郭紫铭 Ziming Guo

       萧李臻瑱 Zhenzhen Xiaoli

       任大为 Dawei Ren

       李栋军 Don

       王甜甜 Tiantian Wang

       冷心清 Xinqing Leng


◎标  签 悬疑 | 段奕宏 | 犯罪 | 国产剧 | 网剧 | 中国大陆 | 大鹏 | 中国


◎简  介


  京城刑警李慧炎(段奕宏 饰)因一起绑架案,来到东北小城双塔,机缘巧合下,与前来寻找父亲被杀真相的入殓师周游(大鹏 饰)相识。二人意外卷入一宗横跨二十六年的恩怨纠葛……夜幕收起,白日笼罩。在一座矗立北方的冻土之城,十二个日夜,向观众揭示一个关于人性的秘密。“双探”于冰冻之寒下的人性涅槃重生……



General


Complete name               : 双探.Double.Tap.2021.EP01.1080P.50FPS.HDR.WEB-DL.X265.10bit.AAC-Vampire.mkv

Format                      : Matroska

Format version              : Version 4

File size                   : 1.47 GiB

Duration                    : 48 min 11 s

Overall bit rate            : 4 360 kb/s

Movie name                  : 双探.Double.Tap.2021.EP01.1080P.50FPS.HDR.WEB-DL.X265.10bit.AAC-Vampire / 双探/Double.Tap

Encoded date                : UTC 2021-09-19 12:02:07

Writing application         : mkvmerge v55.0.0 ('Waiting For Space') 64-bit

Writing library             : libebml v1.4.2 + libmatroska v1.6.4

Cover                       : Yes

Comment                     : 警告:严禁将本人制作的任何作品用于商业性质活动,所有制作作品仅限于测试宽带之用,请于下载后24小时内删除。本人不承担任何法律后果!喜欢本作品请购买正版!!!

Attachments                 : cover.jpg

ARTIST                      : Vampire制作分享作品

DATE_RECORDED               : 2021

GENRE                       : 中国大陆


Video

ID                          : 1

Format                      : HEVC

Format/Info                 : High Efficiency Video Coding

Format profile              : Main [email protected]@Main

HDR format                  : SMPTE ST 2086, HDR10 compatible

Codec ID                    : V_MPEGH/ISO/HEVC

Duration                    : 48 min 11 s

Bit rate                    : 4 101 kb/s

Width                       : 1 920 pixels

Height                      : 1 080 pixels

Display aspect ratio        : 16:9

Frame rate mode             : Constant

Frame rate                  : 50.000 FPS

Color space                 : YUV

Chroma subsampling          : 4:2:0

Bit depth                   : 10 bits

Bits/(Pixel*Frame)          : 0.040

Stream size                 : 1.38 GiB (94%)

Title                       : Vampire制作分享作品

Language                    : Chinese

Default                     : Yes

Forced                      : No

Color range                 : Limited

Color primaries             : BT.2020

Transfer characteristics    : PQ

Matrix coefficients         : BT.2020 non-constant

Mastering display color pri : Display P3

Mastering display luminance : min: 0.0005 cd/m2, max: 500 cd/m2


Audio

ID                          : 2

Format                      : AAC LC

Format/Info                 : Advanced Audio Codec Low Complexity

Codec ID                    : A_AAC-2

Duration                    : 48 min 11 s

Bit rate                    : 253 kb/s

Channel(s)                  : 2 channels

Channel layout              : L R

Sampling rate               : 48.0 kHz

Frame rate                  : 46.875 FPS (1024 SPF)

Compression mode            : Lossy

Delay relative to video     : -42 ms

Stream size                 : 87.3 MiB (6%)

Title                       : 汉语普通话

Language                    : Chinese

Default                     : Yes

Forced                      : No


本人发布的种子请使用专业BT下载工具:

UT,Bitcomet,qBittorrent,Xdown开启上传后再下载!!!

使用迅雷或度盘离线可能会没速度!!!


视频的网盘资源均在视频后缀(如mp4或mkv)后又跟随了.xy(mp4.xy或mkv.xy)用以混淆官方视听!
并且加密了文件名,设置了独有的解压密码,请使用WinRAR解压,使用好压或其他可能会出错!
已完结剧集不再分集打包上传,整体打包后分卷,无法单独下载某一集,需要全部下载后一起解压,敬请知晓!
请各位下载的坛友先保存至自己的网盘,然后再进行下载!!!
不要直接在线观看或者解压,否则会很快被网盘官方发觉并和谐!


阿里云盘后缀名凡是“PDF”的,请在下载完成后将后缀名“PDF”修改为“rar”,即可正常解压,观看!

目前阿里云盘上传和下载均不限速,趁着这段“免费VIP”的时间,就暂时放弃度盘吧!


请下载完成的朋友自觉做种一段时间,小水管出种不易,且下且珍惜,谢谢!!!


解压请使用官方原版WinRAR,使用破解版或者好压等软件可能会出错,感谢所有赞赏的朋友!!!


1 个附件 售价 大小 下载 时间

双探.Double.Tap.2021.Complete.1080P.50FPS.HDR.WEB-DL.X265.10bit.AAC-Vampire.rar 0 金币 1.17M 35637 次 1月前

#1楼
发帖时间:2021-09-19 20:31:57   |   回复数:6
zm128
武林高手
感谢大佬分享~~~~~~
1月前 #2楼
Jasongreat
武林盟主
全集啊,多谢楼主的分享了
1月前 #3楼
黑色幽默66
武林高手
感谢大佬分享~~~~~~
1月前 #4楼
chechi008
武林盟主
感谢楼主分享。。
1月前 #5楼
chulps
一代宗师
ddd
1月前 #6楼
558555
江湖小虾
感谢楼主分享
4天前 #7楼
游客组